<?xml version="1.0" standalone="no"?>
<!DOCTYPE svg PUBLIC "-//W3C//DTD SVG 1.1//EN" "http://www.w3.org/Graphics/SVG/1.1/DTD/svg11.dtd" >
<svg xmlns="http://www.w3.org/2000/svg">
<metadata></metadata>
<defs>
<font id="rubiklight" horiz-adv-x="1097" >
<font-face units-per-em="2048" ascent="1638" descent="-410" />
<missing-glyph horiz-adv-x="528" />
<glyph unicode="&#xfb01;" horiz-adv-x="1013" d="M39 991v29q0 45 45 45h182v117q0 68 13.5 129t48 106t94 72t153.5 27h228q45 0 45 -46v-28q0 -45 -45 -45h-228q-109 0 -146.5 -58.5t-37.5 -167.5v-106h412q45 0 45 -45v-975q0 -45 -45 -45h-35q-45 0 -45 45v901h-332v-901q0 -45 -45 -45h-35q-45 0 -45 45v901h-182 q-45 0 -45 45z" />
<glyph unicode="&#xfb02;" horiz-adv-x="1136" d="M39 991v29q0 45 45 45h182v117q0 68 13.5 129t48 106t94 72t153.5 27h107q45 0 45 -46v-28q0 -45 -45 -45h-107q-109 0 -146.5 -58.5t-37.5 -167.5v-106h453v405q0 45 45 46h35q45 0 45 -46v-1425q0 -45 -45 -45h-35q-45 0 -45 45v901h-453v-901q0 -45 -45 -45h-35 q-45 0 -45 45v901h-182q-45 0 -45 45z" />
<glyph unicode="&#xfb03;" horiz-adv-x="1591" d="M39 991v29q0 45 45 45h182v117q0 68 13.5 129t48 106t94 72t153.5 27h107q45 0 45 -46v-28q0 -45 -45 -45h-107q-109 0 -146.5 -58.5t-37.5 -167.5v-106h453v117q0 68 13 129t48 106t94.5 72t153.5 27h227q45 0 45 -46v-28q0 -45 -45 -45h-227q-109 0 -146.5 -58.5 t-37.5 -167.5v-106h411q45 0 45 -45v-975q0 -45 -45 -45h-34q-45 0 -46 45v901h-331v-901q0 -45 -45 -45h-35q-45 0 -45 45v901h-453v-901q0 -45 -45 -45h-35q-45 0 -45 45v901h-182q-45 0 -45 45z" />
<glyph unicode="&#xfb04;" horiz-adv-x="1714" d="M39 991v29q0 45 45 45h182v117q0 68 13.5 129t48 106t94 72t153.5 27h107q45 0 45 -46v-28q0 -45 -45 -45h-107q-109 0 -146.5 -58.5t-37.5 -167.5v-106h453v117q0 68 13 129t48 106t94.5 72t153.5 27h107q45 0 45 -46v-28q0 -45 -45 -45h-107q-109 0 -146.5 -58.5 t-37.5 -167.5v-106h452v405q0 45 45 46h35q45 0 45 -46v-1425q0 -45 -45 -45h-35q-45 0 -45 45v901h-452v-901q0 -45 -45 -45h-35q-45 0 -45 45v901h-453v-901q0 -45 -45 -45h-35q-45 0 -45 45v901h-182q-45 0 -45 45z" />
<glyph horiz-adv-x="0" />
<glyph horiz-adv-x="0" />
<glyph unicode="&#xd;" horiz-adv-x="593" />
<glyph unicode=" "  horiz-adv-x="528" />
<glyph unicode="&#x09;" horiz-adv-x="528" />
<glyph unicode="&#xa0;" horiz-adv-x="528" />
<glyph unicode="!" horiz-adv-x="460" d="M145 45v78q0 20 12.5 33.5t32.5 13.5h78q20 0 33.5 -13.5t13.5 -33.5v-78q0 -20 -13 -32.5t-34 -12.5h-78q-45 0 -45 45zM168 338v1051q0 45 45 45h35q45 0 45 -45v-1051q0 -45 -45 -45h-35q-45 0 -45 45z" />
<glyph unicode="&#x22;" horiz-adv-x="696" d="M127 1413q-2 18 9 29.5t30 11.5h92q18 0 29.5 -11t9.5 -30l-31 -334q-4 -39 -35 -39h-38q-31 0 -35 39zM399 1413q-2 18 9.5 29.5t29.5 11.5h92q18 0 29.5 -11t9.5 -30l-30 -334q-4 -39 -35 -39h-39q-31 0 -35 39z" />
<glyph unicode="#" horiz-adv-x="1435" d="M106 436v29q0 45 46 45h243l60 401h-250q-45 0 -45 45v29q0 45 45 45h268l41 268q4 16 14.5 29.5t30.5 13.5h37q18 0 30.5 -12t10.5 -31l-41 -268h342l41 268q4 16 14.5 29.5t30.5 13.5h37q18 0 30.5 -12t10.5 -31l-41 -268h223q45 0 45 -45v-29q0 -45 -45 -45h-240 l-59 -401h246q45 0 45 -45v-29q0 -45 -45 -45h-264l-39 -268q-4 -18 -15.5 -30.5t-31.5 -12.5h-37q-18 0 -31.5 12t-9.5 31q2 12 8 47q4 29 11 82t22 139h-342l-39 -268q-4 -18 -15.5 -30.5t-31.5 -12.5h-37q-18 0 -31.5 12t-9.5 31q2 12 8 47q4 29 11.5 82t21.5 139h-227 q-45 0 -46 45zM520 510h340l60 401h-340z" />
<glyph unicode="$" horiz-adv-x="1220" d="M90 348q0 16 12.5 28.5t30.5 12.5h41q20 0 30.5 -12t14.5 -29q6 -43 30.5 -87t73 -79t120 -57.5t171.5 -22.5q201 0 293 73t92 196q0 61 -26.5 103t-81.5 76t-139 64.5t-199 67.5q-111 35 -189.5 70.5t-131 82t-77 106.5t-24.5 144q0 145 106.5 248t309.5 119v141 q0 45 45 45h39q45 0 45 -45v-143q102 -10 179 -46t127 -86t76.5 -108.5t28.5 -113.5q0 -16 -10 -28.5t-33 -12.5h-40q-10 0 -25.5 8t-20.5 33q-12 102 -107 168.5t-247 66.5q-76 0 -139.5 -14t-108.5 -45t-70.5 -77t-25.5 -110q0 -61 23.5 -104t75 -78t129 -65.5 t188.5 -65.5q115 -37 200 -72.5t141 -81t83.5 -104.5t27.5 -143q0 -174 -120.5 -274.5t-331.5 -114.5v-142q0 -45 -45 -45h-39q-45 0 -45 45v144q-109 8 -193 40.5t-142 83t-89 113t-33 127.5z" />
<glyph unicode="%" horiz-adv-x="1517" d="M106 1071.5q0 20.5 1.5 43t3.5 50.5q6 123 75.5 201t210.5 78t211 -78t76 -201q2 -29 2 -51v-42.5v-41t-2 -47.5q-6 -123 -79 -194.5t-208 -71.5t-207.5 71.5t-78.5 194.5q-2 27 -3.5 47.5t-1.5 41zM180 41q0 4 2 10t6 12l1010 1332q14 18 26.5 28.5t41.5 10.5h34 q41 0 41 -41q0 -4 -2 -10.5t-6 -12.5l-1009 -1331q-14 -18 -26.5 -28.5t-41.5 -10.5h-35q-41 0 -41 41zM225 1075.5q0 -18.5 1 -38t3 -48.5t11.5 -58.5t29 -54t50 -40t77.5 -15.5q45 0 77 15.5t51.5 40t28.5 54.5t11 58q2 29 2 48.5v38v38t-2 45.5q-2 31 -11 61.5t-28.5 54 t-51.5 39t-77 15.5t-76.5 -15.5t-51 -39t-29 -54t-11.5 -61.5q-2 -27 -3 -46t-1 -37.5zM829 352.5q0 20.5 1 43t4 50.5q6 123 75.5 201t210.5 78t211 -78t76 -201q2 -29 2 -51v-42.5v-41t-2 -47.5q-6 -123 -79 -199.5t-208 -76.5t-207.5 76.5t-78.5 199.5q-2 27 -3.5 47.5 t-1.5 41zM948 356.5q0 -18.5 1 -38t3 -48.5t11.5 -58.5t29 -54t50 -40t77.5 -15.5q45 0 77 15.5t51.5 40t28.5 54.5t11 58q2 29 2 48.5v38v38t-2 45.5q-2 31 -11 61.5t-28.5 54.5t-51.5 39t-77 15t-76.5 -15t-51 -39t-29 -54.5t-11.5 -61.5q-2 -27 -3 -46t-1 -37.5z" />
<glyph unicode="&#x26;" horiz-adv-x="1380" d="M125 377q0 72 24.5 129t65.5 104t94 85t111 73q-53 55 -89 101t-58.5 88t-33 83t-10.5 86q0 68 27 127.5t74 103.5t112.5 70.5t143.5 26.5t143.5 -24.5t112.5 -68.5t73.5 -104.5t26.5 -130.5q0 -72 -27.5 -127t-71.5 -101t-102.5 -83t-119.5 -72q63 -61 131 -129 q57 -57 125.5 -124.5t134.5 -129.5q41 70 70.5 153t41.5 192q4 45 45 45h39q45 0 45 -45q-4 -94 -35.5 -206t-111.5 -231l201 -196q18 -18 18 -33q0 -39 -41 -39h-45q-23 0 -35 5t-22 15l-152 152q-78 -84 -190.5 -138t-264.5 -54q-98 0 -181 29.5t-143.5 82.5t-93 126 t-32.5 159zM254 377q0 -68 26.5 -119t70.5 -86t102.5 -52.5t121.5 -17.5q92 0 186.5 39t174.5 123q-70 68 -145.5 140.5t-139.5 134.5q-73 71 -145 141q-51 -29 -97.5 -60.5t-80 -67.5t-54 -79t-20.5 -96zM358 1126q0 -31 7.5 -59.5t28 -62t53 -74.5t85.5 -96 q55 31 106.5 61.5t89.5 65t61.5 75.5t23.5 90q0 94 -65.5 149.5t-161.5 55.5q-45 0 -86 -14t-73 -41t-50.5 -64.5t-18.5 -85.5z" />
<glyph unicode="'" horiz-adv-x="423" d="M127 1413q-2 18 9 29.5t30 11.5h92q18 0 29.5 -11t9.5 -30l-31 -334q-4 -39 -35 -39h-38q-31 0 -35 39z" />
<glyph unicode="(" horiz-adv-x="653" d="M131 633q0 248 17.5 428t65.5 298t131 174t212 56q18 0 31.5 -13t13.5 -32v-28q0 -18 -12 -32t-27 -14q-86 0 -145.5 -39.5t-96 -136t-53 -257t-16.5 -404.5t16.5 -405.5t53 -258t96 -136.5t145.5 -40q14 0 26.5 -13t12.5 -32v-29q0 -18 -13.5 -31.5t-31.5 -13.5 q-129 0 -212 56.5t-131 174.5t-65.5 299t-17.5 429z" />
<glyph unicode=")" horiz-adv-x="653" d="M51 -252q0 18 12.5 31.5t26.5 13.5q86 0 145.5 40t96.5 136.5t53 258t16 405.5t-16 404.5t-53 257t-96.5 136t-145.5 39.5q-14 0 -26.5 13.5t-12.5 32.5v28q0 18 13.5 31.5t31.5 13.5q129 0 212 -56t131 -174t65.5 -298t17.5 -428t-17.5 -429t-65.5 -299t-131 -174.5 t-212 -56.5q-18 0 -31.5 13.5t-13.5 31.5v29z" />
<glyph unicode="*" horiz-adv-x="913" d="M125 1227l27 78q4 16 21.5 24t33.5 4q2 0 16 -8l189 -102l-39 211q-2 10 -2 16q0 16 13 30.5t32 14.5h82q18 0 31.5 -14.5t13.5 -30.5q0 -6 -2 -16l-41 -213l190 104q14 8 17 8q16 4 33.5 -4t21.5 -24l26 -78q4 -18 -4 -35.5t-24 -22.5q-2 0 -5 -1t-12 -3l-215 -28 l158 -146q12 -12 12 -14q10 -12 8.5 -31.5t-18.5 -30.5l-65 -49q-16 -10 -35 -7t-29 18q0 2 -2 4t-6 10l-94 196l-95 -196q-4 -8 -6 -10t-2 -4q-10 -14 -28.5 -17.5t-34.5 6.5l-66 49q-16 10 -18 30t8 32q0 2 12 14l156 148l-213 26q-8 2 -11 3t-5 1q-16 4 -24.5 21.5 t-4.5 36.5z" />
<glyph unicode="+" horiz-adv-x="1286" d="M92 606v29q0 45 45 45h445v436q0 45 45 45h30q45 0 45 -45v-436h447q45 0 45 -45v-29q0 -45 -45 -45h-447v-448q0 -45 -45 -45h-30q-45 0 -45 45v448h-445q-45 0 -45 45z" />
<glyph unicode="," horiz-adv-x="485" d="M121 -111l39 246q4 25 15 40t36 15h92q14 0 22.5 -10t8.5 -22q0 -18 -8 -37l-88 -232q-10 -20 -20.5 -31.5t-33.5 -11.5h-34q-16 0 -24.5 12.5t-4.5 30.5z" />
<glyph unicode="-" horiz-adv-x="997" d="M152 600v29q0 45 45 45h604q45 0 45 -45v-29q0 -45 -45 -45h-604q-45 0 -45 45z" />
<glyph unicode="." horiz-adv-x="487" d="M150 45v98q0 20 12 33.5t33 13.5h98q20 0 33.5 -13t13.5 -34v-98q0 -20 -13.5 -32.5t-33.5 -12.5h-98q-45 0 -45 45z" />
<glyph unicode="/" horiz-adv-x="940" d="M55 -131q0 8 6 25l705 1685q4 8 14.5 19.5t30.5 11.5h35q16 0 28.5 -12.5t12.5 -28.5q0 -10 -6 -25l-705 -1685q-4 -8 -14 -19.5t-31 -11.5h-35q-16 0 -28.5 12.5t-12.5 28.5z" />
<glyph unicode="0" horiz-adv-x="1261" d="M139 545q-4 168 0 344q2 113 26.5 215t82 180t151 124t232.5 46t232 -46t149.5 -124t82 -180.5t27.5 -214.5q4 -176 0 -344q-4 -113 -28.5 -215.5t-81 -180t-149.5 -123.5t-232 -46t-232.5 46t-149.5 123.5t-82 180t-28 215.5zM266 718q0 -75 2 -163q4 -211 92.5 -332 t270.5 -121t270 121t92 332q2 88 2 163t-2 161q-4 207 -93 329.5t-269 122.5q-182 0 -270.5 -123t-92.5 -329q-2 -86 -2 -161z" />
<glyph unicode="1" horiz-adv-x="815" d="M57.5 1053.5q1.5 17.5 18.5 29.5l436 336q14 10 26.5 12.5t26.5 2.5h39q45 0 45 -45v-1344q0 -45 -45 -45h-39q-45 0 -45 45v1221l-366 -283q-37 -27 -64 8l-22 29q-12 16 -10.5 33.5z" />
<glyph unicode="2" horiz-adv-x="1146" d="M106 45v31q0 20 11.5 39.5t40.5 46.5l530 530q57 53 94 96t58.5 83t30 80t8.5 87q0 137 -78 215t-226 78q-141 0 -221 -81t-96 -214q-4 -25 -19.5 -36t-27.5 -11h-41q-43 0 -43 39q2 70 28.5 145.5t81 138t138.5 102.5t200 40q117 0 199 -35t134.5 -92t76 -133t23.5 -156 q0 -127 -55.5 -225t-168.5 -203l-479 -487h686q47 0 47 -47v-31q0 -45 -47 -45h-839q-45 0 -46 45z" />
<glyph unicode="3" horiz-adv-x="1179" d="M96 330q0 18 12.5 28.5t30.5 10.5h29q16 0 31.5 -8.5t23.5 -38.5q16 -68 54 -110t88.5 -66.5t107.5 -34t113 -9.5q80 0 145.5 18.5t113.5 56.5t74.5 95.5t26.5 133.5q0 152 -91 217t-249 65h-180q-45 0 -45 45v31q0 16 5 27.5t13 21.5l422 498h-618q-45 0 -45 45v30 q0 47 45 48h764q47 0 47 -48v-30q0 -12 -5 -21.5t-12 -17.5l-432 -506h41q104 0 191.5 -24.5t149 -74.5t95 -127t33.5 -179t-37 -181.5t-102.5 -133.5t-155.5 -82.5t-194 -28.5q-115 0 -205 29.5t-152.5 78.5t-96.5 111.5t-36 130.5z" />
<glyph unicode="4" horiz-adv-x="1218" d="M66 414v32q0 4 3 21.5t19 40.5l623 891q25 35 75 35h84q45 0 45 -45v-897h187q45 0 45 -46v-32q0 -45 -45 -45h-187v-324q0 -45 -45 -45h-39q-45 0 -45 45v324h-675q-45 0 -45 45zM227 492h559v796z" />
<glyph unicode="5" horiz-adv-x="1171" d="M102 358q-2 18 10.5 28.5t30.5 10.5h39q16 0 29.5 -8t21.5 -39q16 -68 50 -115t80.5 -76.5t100.5 -43t109 -13.5q76 0 142.5 24t116 69t78 111.5t28.5 152.5q0 80 -28.5 142.5t-78 105.5t-116 65.5t-142.5 22.5q-78 0 -126 -19.5t-81.5 -42t-59 -42t-58.5 -19.5h-37 q-18 0 -32.5 13t-12.5 32l61 669q4 47 45 48h668q45 0 45 -45v-33q0 -45 -45 -45h-588l-43 -463q20 14 85 42t179 28q102 0 192.5 -30t157 -88.5t105.5 -143.5t39 -197q0 -121 -39 -210t-105.5 -149.5t-156.5 -90t-193 -29.5q-113 0 -198.5 32.5t-145 86t-92.5 121 t-35 138.5z" />
<glyph unicode="6" horiz-adv-x="1191" d="M113 463q0 59 13 114.5t33.5 101.5t42 84t40.5 62l403 568q10 10 22.5 25.5t41.5 15.5h39q18 0 29 -13.5t11 -31.5q0 -10 -3 -16.5t-7 -10.5l-307 -434q29 8 66.5 12t72.5 4q123 0 216.5 -40t155.5 -107.5t94 -154.5t32 -179t-32 -179t-94 -155t-155.5 -108.5 t-216.5 -40.5t-216 40.5t-155.5 108.5t-94 155t-31.5 179zM242 463q0 -88 30.5 -155.5t82 -112.5t118 -69t137.5 -24q72 0 138.5 24t118 69t82 112.5t30.5 155.5t-30.5 154.5t-82 111.5t-118 68.5t-138.5 23.5t-138 -23.5t-117.5 -68.5t-82 -111.5t-30.5 -154.5z" />
<glyph unicode="7" horiz-adv-x="997" d="M59 1356v30q0 47 45 48h791q47 0 47 -48v-30q0 -25 -3 -40.5t-11 -35.5l-518 -1229q-8 -16 -19.5 -33.5t-34.5 -17.5h-43q-18 0 -29.5 13.5t-11.5 31.5q0 6 4 18l527 1248h-699q-45 0 -45 45z" />
<glyph unicode="8" horiz-adv-x="1265" d="M123 403q0 131 63.5 222.5t167.5 140.5q-84 47 -132 124t-48 187q0 92 36 163t98.5 119t145.5 71.5t179 23.5q94 0 178 -23.5t146.5 -71.5t98.5 -119t36 -163q0 -111 -49.5 -187.5t-131.5 -123.5q104 -49 168 -140t64 -223q0 -102 -40 -182t-109.5 -133t-163 -80.5 t-197.5 -27.5t-197.5 27.5t-163 80.5t-109.5 133t-40 182zM252 403q0 -70 29.5 -126t82 -95t121 -59.5t148.5 -20.5t148.5 20.5t120.5 59.5t82 95.5t30 125.5q0 70 -30 125.5t-82 94.5t-120.5 59t-148.5 20t-148.5 -20t-121 -59t-82 -94.5t-29.5 -125.5zM303 1077 q0 -59 25.5 -106t70.5 -80t105.5 -49.5t128.5 -16.5q66 2 126 19.5t105 49.5t72 78t27 105t-26 106.5t-71 80t-105.5 50t-127.5 17.5q-68 0 -128.5 -17.5t-105.5 -50t-70.5 -80t-25.5 -106.5z" />
<glyph unicode="9" horiz-adv-x="1171" d="M86 981q0 86 29.5 170t90 151.5t152 109.5t213.5 42q123 0 214.5 -42t152.5 -109.5t91 -151.5t30 -170q0 -61 -12.5 -112.5t-31 -94.5t-39 -77.5t-38.5 -59.5l-422 -596q-10 -10 -22.5 -25.5t-40.5 -15.5h-41q-18 0 -29.5 13.5t-11.5 31.5q0 10 3 16.5t7 10.5l324 454 q-61 -16 -134 -16q-123 0 -214 42t-151.5 108.5t-90 150.5t-29.5 170zM215 981q0 -80 28.5 -144.5t78 -109.5t114 -69.5t135.5 -24.5q72 0 137.5 24.5t114.5 69.5t78 109.5t29 144.5t-29 145.5t-78 110.5t-114.5 69.5t-137.5 24.5t-136 -24.5t-113.5 -69.5t-78 -110.5 t-28.5 -145.5z" />
<glyph unicode=":" horiz-adv-x="493" d="M152 45v98q0 20 12 33.5t33 13.5h98q20 0 33.5 -13t13.5 -34v-98q0 -20 -13.5 -32.5t-33.5 -12.5h-98q-45 0 -45 45zM152 762v98q0 20 12 33.5t33 13.5h98q20 0 33.5 -13t13.5 -34v-98q0 -20 -13.5 -32.5t-33.5 -12.5h-98q-45 0 -45 45z" />
<glyph unicode=";" horiz-adv-x="530" d="M152 -111l38 246q4 25 15.5 40t36.5 15h92q14 0 22.5 -10t8.5 -22q0 -18 -9 -37l-88 -232q-10 -20 -20 -31.5t-33 -11.5h-35q-16 0 -24.5 12.5t-3.5 30.5zM176 762v98q0 20 12.5 33.5t32.5 13.5h98q20 0 34 -13t14 -34v-98q0 -20 -13.5 -32.5t-34.5 -12.5h-98 q-45 0 -45 45z" />
<glyph unicode="&#x3c;" horiz-adv-x="985" d="M80 709v24q0 29 13 50.5t46 43.5l604 418q10 6 25.5 15.5t30.5 9.5q16 0 28.5 -10.5t12.5 -30.5v-35q0 -20 -9.5 -33.5t-33.5 -30.5l-592 -409l592 -410q25 -16 34 -29.5t9 -33.5v-35q0 -20 -12.5 -30.5t-28.5 -10.5q-14 0 -29.5 9t-26.5 16l-604 417q-33 23 -46 44.5 t-13 50.5z" />
<glyph unicode="=" horiz-adv-x="1169" d="M156 344v29q0 45 45 45h768q45 0 45 -45v-29q0 -45 -45 -45h-768q-45 0 -45 45zM156 856v29q0 45 45 45h768q45 0 45 -45v-29q0 -45 -45 -45h-768q-45 0 -45 45z" />
<glyph unicode="&#x3e;" horiz-adv-x="983" d="M145 213v35q0 20 9.5 33.5t33.5 29.5l592 410l-592 409q-25 16 -34 30t-9 34v35q0 20 12.5 30.5t28.5 10.5q14 0 29.5 -9.5t26.5 -15.5l604 -418q33 -23 46 -44t13 -50v-24q0 -29 -13 -50.5t-46 -44.5l-604 -417q-10 -6 -25.5 -15.5t-30.5 -9.5q-16 0 -28.5 10.5 t-12.5 30.5z" />
<glyph unicode="?" horiz-adv-x="1030" d="M72 1047q2 86 35.5 159.5t94 129t141.5 87t179 31.5q113 0 196 -32.5t136 -87t77.5 -123t18.5 -140.5t-34.5 -129t-68.5 -107.5t-86 -95.5t-85 -92t-64.5 -98t-25.5 -113v-98q0 -45 -45 -45h-35q-45 0 -45 45v98q0 78 25.5 140.5t63.5 114.5t83 98.5t86 90.5t70.5 90 t35.5 99q8 63 -16.5 113.5t-67.5 84t-101 51t-118 17.5q-121 0 -210 -64.5t-115 -219.5q-4 -29 -18.5 -37t-31.5 -8h-32q-18 0 -30.5 11t-12.5 30zM436 45v78q0 20 12.5 33.5t32.5 13.5h78q20 0 33.5 -13.5t13.5 -33.5v-78q0 -20 -13 -32.5t-34 -12.5h-78q-45 0 -45 45z" />
<glyph unicode="@" horiz-adv-x="1691" d="M125 560q0 52 1 99.5t5 73.5q35 293 210 457t484 164q354 0 532.5 -160t192.5 -461q2 -41 3 -84t0 -81t-2 -66.5t-1 -40.5q-18 -299 -264 -299q-51 0 -89 14t-63.5 34.5t-42 41t-22.5 31.5q-12 -20 -31.5 -45t-50.5 -46.5t-74 -36t-100 -14.5q-154 0 -245 106.5 t-91 311.5t92.5 312.5t243.5 107.5q86 0 134 -33t77 -67v39q0 45 45 45h35q45 0 45 -45v-447q0 -98 39 -144t98 -46q45 0 72.5 21.5t42 52t19.5 63.5t5 55q2 25 4.5 95.5t-4.5 154.5q-10 123 -47 218t-109.5 160.5t-181 99.5t-262.5 34q-252 0 -396 -133t-173 -379 q-4 -27 -5 -71t-1 -92t1 -93t5 -74q27 -242 172 -374t397 -132q117 0 195 17.5t129 40t82 47t49 39.5q8 6 19.5 15t29.5 9h53q18 0 30.5 -12t12.5 -31q0 -14 -10 -28q-41 -43 -93 -82t-123 -69t-163 -47t-211 -17q-311 0 -486 157.5t-208 456.5q-4 29 -5 77t-1 100zM602 559 q0 -57 11.5 -111.5t36 -95.5t64.5 -66.5t99 -25.5q61 0 101 22.5t65 62.5t35 94.5t10 119.5q0 66 -10 121t-35 95t-65 62.5t-101 22.5q-59 0 -99 -22.5t-64.5 -62.5t-36 -95t-11.5 -121z" />
<glyph unicode="A" horiz-adv-x="1331" d="M49 41q0 10 4 22l518 1330q8 20 21.5 30.5t38.5 10.5h69q25 0 38.5 -10.5t21.5 -30.5l518 -1330q4 -12 4 -22q0 -16 -12.5 -28.5t-28.5 -12.5h-41q-20 0 -30.5 11.5t-14.5 19.5l-127 327h-725l-127 -327q-4 -8 -14 -19.5t-31 -11.5h-41q-16 0 -28.5 12.5t-12.5 28.5z M352 481h627l-313 807z" />
<glyph unicode="B" horiz-adv-x="1337" d="M193 45v1341q0 47 45 48h534q106 0 184 -30t129.5 -81t75 -116.5t23.5 -139.5q0 -66 -16.5 -117t-43 -90t-58.5 -64.5t-62 -39.5q41 -20 78.5 -53t66.5 -78t46 -100.5t17 -118.5q0 -78 -27.5 -151t-80.5 -130t-133 -91t-185 -34h-548q-45 0 -45 45zM322 123h444 q154 0 235.5 80t81.5 203q0 125 -81.5 203.5t-235.5 78.5h-444v-565zM322 811h423q154 0 232 66.5t78 189.5q0 244 -310 244h-423v-500z" />
<glyph unicode="C" horiz-adv-x="1333" d="M131 715q0 96 4 184q4 119 37 221.5t99.5 176t167 115.5t239.5 42q145 0 247.5 -42t168 -106.5t96.5 -142.5t35 -151q2 -18 -11.5 -29.5t-31.5 -11.5h-41q-16 0 -28.5 9t-16.5 34q-20 92 -57.5 152.5t-89.5 97t-120.5 52t-150.5 15.5q-188 0 -297 -104.5t-117 -337.5 q-3 -85 -3 -171t3 -173q8 -233 116.5 -338t297.5 -105q82 0 150.5 15.5t120.5 52.5t89 97.5t58 152.5q4 25 16 34t29 9h41q18 0 31.5 -11.5t11.5 -29.5q-4 -74 -35 -151.5t-96.5 -142.5t-168 -106.5t-247.5 -41.5q-139 0 -239.5 41.5t-167 115.5t-99.5 175.5t-37 222.5 q-4 84 -4 180z" />
<glyph unicode="D" horiz-adv-x="1386" d="M193 45v1341q0 47 45 48h436q162 0 270.5 -36t174 -106.5t94 -174t30.5 -236.5q2 -92 2 -163t-2 -163q-4 -141 -31.5 -245.5t-92 -173t-171 -102.5t-264.5 -34h-446q-45 0 -45 45zM322 123h352q123 0 206 24.5t134 76.5t74.5 136t25.5 205q0 45 1 82t1 71t-1 69.5 t-1 82.5q-2 113 -26.5 196t-78 137t-138.5 81t-207 27h-342v-1188z" />
<glyph unicode="E" horiz-adv-x="1212" d="M193 45v1341q0 47 45 48h798q47 0 47 -48v-30q0 -45 -47 -45h-714v-523h669q47 0 47 -47v-30q0 -45 -47 -45h-669v-543h731q47 0 47 -47v-31q0 -45 -47 -45h-815q-45 0 -45 45z" />
<glyph unicode="F" horiz-adv-x="1167" d="M193 45v1341q0 47 45 48h790q47 0 47 -48v-30q0 -45 -47 -45h-706v-551h665q47 0 47 -47v-31q0 -45 -47 -45h-665v-592q0 -45 -48 -45h-36q-45 0 -45 45z" />
<glyph unicode="G" horiz-adv-x="1359" d="M133 716.5q0 102.5 4 194.5q4 121 41 220.5t105.5 171t169 111.5t231.5 40q141 0 241.5 -43t164 -102.5t94 -125t33.5 -108.5q2 -18 -10.5 -29.5t-32.5 -11.5h-46q-18 0 -26 9.5t-17 31.5q-16 47 -45.5 93t-79 82t-117 58.5t-159.5 22.5t-167 -23.5t-129 -75.5t-86 -134 t-36 -197q-3 -92 -3 -184.5t3 -184.5q4 -115 36 -196.5t86 -133.5t129 -76t167 -24q90 0 168 26t134 78t89 134t33 192v105h-356q-45 0 -45 47v29q0 47 45 47h438q47 0 47 -47v-181q0 -123 -37 -224t-107.5 -175t-174 -113.5t-234.5 -39.5q-133 0 -233.5 39.5t-169 111.5 t-104.5 171t-40 220q-4 92 -4 194.5z" />
<glyph unicode="H" horiz-adv-x="1433" d="M193 45v1341q0 47 45 48h36q47 0 48 -48v-598h790v598q0 47 45 48h37q47 0 47 -48v-1341q0 -45 -47 -45h-37q-45 0 -45 45v621h-790v-621q0 -45 -48 -45h-36q-45 0 -45 45z" />
<glyph unicode="I" horiz-adv-x="514" d="M193 45v1344q0 45 45 45h38q45 0 46 -45v-1344q0 -45 -46 -45h-38q-45 0 -45 45z" />
<glyph unicode="J" horiz-adv-x="1265" d="M92 397q0 18 10.5 31.5t32.5 13.5h41q20 0 31.5 -12t13.5 -31q6 -80 38 -136t82 -92t113.5 -52.5t135.5 -16.5q90 0 158.5 31t114.5 87t69.5 134t23.5 170v787h-755q-45 0 -45 45v33q0 45 45 45h837q47 0 47 -48v-864q0 -121 -31.5 -220t-95 -171t-155.5 -111.5 t-213 -39.5q-100 0 -188.5 24.5t-156 75.5t-108.5 130t-45 187z" />
<glyph unicode="K" horiz-adv-x="1177" d="M193 45v1341q0 47 45 48h36q47 0 48 -48v-532l620 549q8 6 26.5 18.5t51.5 12.5h33q16 0 28.5 -12.5t12.5 -28.5t-11 -27l-694 -618l737 -678q12 -12 13 -29q0 -16 -12.5 -28.5t-28.5 -12.5h-35q-33 0 -51.5 12.5t-26.5 18.5l-663 606v-592q0 -45 -48 -45h-36 q-45 0 -45 45z" />
<glyph unicode="L" horiz-adv-x="1122" d="M193 45v1344q0 45 45 45h38q45 0 46 -45v-1266h706q47 0 47 -47v-31q0 -45 -47 -45h-790q-45 0 -45 45z" />
<glyph unicode="M" horiz-adv-x="1597" d="M193 45v1341q0 47 47 48h51q20 0 29.5 -10.5t13.5 -16.5l465 -905l467 905q4 6 13 16.5t30 10.5h49q47 0 47 -48v-1341q0 -45 -47 -45h-37q-45 0 -45 45v1110l-391 -770q-18 -41 -64 -41h-45q-45 0 -63 41l-391 770v-1110q0 -45 -46 -45h-36q-47 0 -47 45z" />
<glyph unicode="N" horiz-adv-x="1400" d="M193 45v1341q0 47 45 48h43q20 0 29 -10.5t14 -14.5l755 -1155v1132q0 47 45 48h37q47 0 47 -48v-1339q0 -47 -45 -47h-45q-20 0 -29.5 10t-13.5 15l-753 1151v-1131q0 -45 -48 -45h-36q-45 0 -45 45z" />
<glyph unicode="O" horiz-adv-x="1355" d="M133 717q0 80 4 172q4 143 44 248.5t110.5 176t168 105.5t218.5 35q119 0 217 -35t169 -105.5t110.5 -176t44.5 -248.5q4 -92 4 -172t-4 -172q-8 -291 -147.5 -428t-393.5 -137q-256 0 -394.5 137t-146.5 428q-4 92 -4 172zM262 717q0 -37 1 -77t3 -85q4 -121 36 -206 t86 -140t128 -81t162 -26t161.5 26t128 81t86 140t36.5 206q2 45 2 85v77v75.5t-2 86.5q-4 119 -36 204.5t-87.5 141t-129 81t-159.5 25.5t-160 -25.5t-129 -81t-87 -141.5t-36 -204q-2 -47 -3 -86t-1 -76z" />
<glyph unicode="P" horiz-adv-x="1286" d="M193 45v1341q0 47 45 48h497q215 0 343 -107.5t128 -316.5t-128 -316.5t-343 -107.5h-413v-541q0 -45 -48 -45h-36q-45 0 -45 45zM322 709h403q180 0 266 76.5t86 224.5q0 147 -86 224t-266 77h-403v-602z" />
<glyph unicode="Q" horiz-adv-x="1355" d="M133 717q0 80 4 172q4 143 44 248.5t110.5 176t168 105.5t218.5 35q119 0 217 -35t169 -105.5t110.5 -176t44.5 -248.5q4 -92 4 -172t-4 -172q-10 -293 -150 -430l131 -185l4 -8t2 -14q0 -16 -12 -28.5t-29 -12.5h-45q-23 0 -39 17.5t-26 29.5l-90 125q-123 -59 -287 -59 q-256 0 -394.5 137t-146.5 428q-4 92 -4 172zM262 717q0 -37 1 -77t3 -85q4 -121 36 -206t86 -140t128 -81t162 -26t161.5 26t128 81t86 140t36.5 206q2 45 2 85v77v75.5t-2 86.5q-4 119 -36 204.5t-87.5 141t-129 81t-159.5 25.5t-160 -25.5t-129 -81t-87 -141.5t-36 -204 q-2 -47 -3 -86t-1 -76z" />
<glyph unicode="R" horiz-adv-x="1310" d="M193 45v1341q0 47 45 48h477q215 0 343 -102.5t128 -311.5q0 -166 -81 -263.5t-228 -131.5l329 -562q6 -12 6 -22q0 -16 -12 -28.5t-29 -12.5h-24q-35 0 -50.5 16.5t-27.5 38.5l-326 551h-421v-561q0 -45 -48 -45h-36q-45 0 -45 45zM322 729h383q352 0 352 291t-352 291 h-383v-582z" />
<glyph unicode="S" horiz-adv-x="1239" d="M98 348q0 16 12.5 28.5t30.5 12.5h41q20 0 30.5 -12t14.5 -29q6 -43 31 -87t73 -79t119.5 -57.5t172.5 -22.5q201 0 293 73t92 196q0 61 -27 103t-82 76t-139 64.5t-199 67.5q-111 35 -189.5 70.5t-131 82t-77 106.5t-24.5 144q0 78 32 145.5t91.5 117t147 78t202.5 28.5 q121 0 211 -34t149.5 -86t90.5 -115.5t33 -122.5q0 -16 -10.5 -28.5t-32.5 -12.5h-41q-10 0 -25.5 8t-19.5 33q-12 102 -107.5 168.5t-247.5 66.5q-76 0 -139 -14t-108.5 -45t-71 -77t-25.5 -110q0 -61 23.5 -104t75 -78t129 -65.5t188.5 -65.5q115 -37 200 -72.5t141 -81 t84 -104.5t28 -143q0 -186 -137.5 -288.5t-376.5 -102.5q-125 0 -221.5 31.5t-163 82.5t-102.5 118t-38 136z" />
<glyph unicode="T" horiz-adv-x="1140" d="M55 1356v30q0 47 45 48h938q47 0 47 -48v-30q0 -45 -47 -45h-403v-1266q0 -45 -47 -45h-37q-45 0 -45 45v1266h-406q-45 0 -45 45z" />
<glyph unicode="U" horiz-adv-x="1415" d="M180 555v831q0 47 45 48h37q47 0 47 -48v-837q0 -231 107.5 -339t292.5 -108q184 0 290.5 107.5t106.5 339.5v837q0 47 47 48h37q45 0 45 -48v-831q0 -299 -137 -437t-389 -138q-125 0 -223.5 33.5t-166 104t-103.5 179.5t-36 258z" />
<glyph unicode="V" horiz-adv-x="1306" d="M76 1393q0 16 12 28.5t29 12.5h43q20 0 30.5 -11.5t14.5 -19.5l448 -1253l449 1253q4 8 14 19.5t31 11.5h43q16 0 28.5 -12.5t12.5 -28.5q0 -10 -4 -23l-475 -1321q-18 -49 -70 -49h-57q-51 0 -70 49l-475 1321q-4 12 -4 23z" />
<glyph unicode="W" horiz-adv-x="1613" d="M98 1393q0 16 12.5 28.5t28.5 12.5h43q39 0 45 -31l240 -1167l254 833q6 18 20.5 32.5t42.5 14.5h45q29 0 43.5 -14.5t20.5 -32.5l254 -833l239 1167q6 31 46 31h43q16 0 28.5 -12.5t12.5 -28.5q0 -4 -5 -25l-280 -1319q-12 -49 -57 -49h-31q-49 0 -64 49l-272 864 l-272 -864q-16 -49 -64 -49h-31q-45 0 -57 49l-281 1319q-4 20 -4 25z" />
<glyph unicode="X" horiz-adv-x="1247" d="M61 41q0 14 9 27l477 661l-459 637q-8 12 -8 27q0 16 12 28.5t29 12.5h49q25 0 47 -31l412 -574l403 574q20 31 47 31h45q16 0 28.5 -12.5t12.5 -28.5q0 -14 -8 -27l-452 -641l475 -657q8 -12 8 -27q0 -16 -12.5 -28.5t-28.5 -12.5h-49q-27 0 -47 31l-428 592l-428 -592 q-23 -31 -48 -31h-45q-16 0 -28.5 12.5t-12.5 28.5z" />
<glyph unicode="Y" horiz-adv-x="1294" d="M74 1393q0 16 12 28.5t29 12.5h41q29 0 47 -31l444 -723l445 723q18 31 47 31h41q16 0 28.5 -12.5t12.5 -28.5q0 -10 -9 -27l-499 -819v-502q0 -45 -47 -45h-39q-45 0 -45 45v502l-500 819q-8 16 -8 27z" />
<glyph unicode="Z" horiz-adv-x="1185" d="M86 47v41q0 31 12.5 49.5t18.5 28.5l807 1145h-774q-45 0 -46 45v30q0 47 46 48h882q47 0 47 -48v-40q0 -27 -8 -43.5t-18 -30.5l-803 -1149h803q47 0 47 -47v-31q0 -45 -47 -45h-922q-45 0 -45 47z" />
<glyph unicode="[" horiz-adv-x="616" d="M160 -281v1825q0 45 45 45h309q45 0 45 -45v-28q0 -45 -45 -46h-229v-1677h229q45 0 45 -45v-29q0 -45 -45 -45h-309q-45 0 -45 45z" />
<glyph unicode="\" horiz-adv-x="940" d="M53 1569q0 16 12.5 28.5t28.5 12.5h35q20 0 30.5 -11.5t14.5 -19.5l705 -1685q6 -16 6 -25q0 -16 -12.5 -28.5t-28.5 -12.5h-35q-20 0 -30.5 11t-14.5 20l-705 1685q-6 14 -6 25z" />
<glyph unicode="]" horiz-adv-x="616" d="M57 -252q0 45 45 45h230v1677h-230q-45 0 -45 46v28q0 45 45 45h310q45 0 45 -45v-1825q0 -45 -45 -45h-310q-45 0 -45 45v29z" />
<glyph unicode="^" horiz-adv-x="856" d="M150 1200q0 16 24 41l178 174q23 23 36 26t30 3h20q16 0 29.5 -3t36.5 -26l178 -174q25 -25 25 -41q0 -23 -29 -22h-35q-12 0 -27.5 4t-23.5 10l-164 123l-164 -123q-8 -6 -23.5 -10t-27.5 -4h-35q-29 0 -28 22z" />
<glyph unicode="_" horiz-adv-x="1542" d="M137 -12v28q0 45 45 45h1178q45 0 45 -45v-28q0 -45 -45 -45h-1178q-45 0 -45 45z" />
<glyph unicode="`" horiz-adv-x="636" d="M143 1446q0 39 39 39h84q31 0 45.5 -8.5t30.5 -28.5l141 -170q10 -10 11 -27q0 -33 -33 -32h-21q-20 0 -33.5 3t-29.5 17l-223 182q-10 10 -11 25z" />
<glyph unicode="a" d="M86 285q0 70 29.5 125t83 97t128 69.5t165.5 39.5l323 46v71q0 111 -66.5 172.5t-211.5 61.5q-115 0 -177.5 -44t-78.5 -96q-8 -25 -19.5 -34t-30.5 -9h-28q-18 0 -31.5 13.5t-13.5 31.5q0 29 20.5 72t66.5 84t117.5 70.5t174.5 29.5q121 0 199.5 -32.5t123.5 -85 t62.5 -116t17.5 -124.5v-682q0 -45 -45 -45h-35q-45 0 -45 45v96q-18 -29 -48 -57.5t-73 -51t-102.5 -37.5t-138.5 -15q-74 0 -140.5 23.5t-117 64.5t-80 96t-29.5 121zM211 295q0 -51 23.5 -88t60.5 -61.5t84 -36t94 -11.5q70 0 132.5 23.5t109.5 71t73.5 119t26.5 167.5 v70l-264 -37q-340 -47 -340 -217z" />
<glyph unicode="b" horiz-adv-x="1187" d="M168 45v1364q0 45 45 45h35q45 0 45 -45v-485q51 68 133 114.5t211 46.5q119 0 202 -44t134 -114.5t74.5 -158.5t27.5 -178q1 -28 1 -57t-1 -58q-4 -90 -27.5 -178t-74.5 -158.5t-134 -114.5t-202 -44q-129 0 -211 46t-133 115v-96q0 -45 -45 -45h-35q-45 0 -45 45z M291 538.5q0 -48.5 2 -79.5q2 -63 21.5 -127t59.5 -116t101.5 -85t149.5 -33q90 0 150.5 31t98 83t55 120.5t21.5 142.5q1 28 1 57t-1 58q-4 74 -21.5 141.5t-55 119.5t-98 84t-150.5 32q-86 0 -147.5 -32t-102.5 -81t-60.5 -111.5t-21.5 -124.5q-2 -31 -2 -79.5z" />
<glyph unicode="c" d="M115 533q0 51 2 81q6 221 120.5 346t331.5 125q109 0 188 -29.5t131 -77.5t77.5 -105.5t27.5 -112.5q2 -20 -12 -32.5t-33 -12.5h-28q-23 0 -31 9t-19 34q-43 117 -117.5 163t-183.5 46q-139 0 -230 -85t-97 -278q-2 -31 -2 -71.5t2 -71.5q6 -193 97 -278t230 -85 q109 0 183.5 46t117.5 163q10 25 18.5 34t31.5 9h28q18 0 32.5 -12t12.5 -33q-2 -55 -27.5 -112.5t-77.5 -105.5t-131 -77.5t-188 -29.5q-217 0 -331.5 124.5t-120.5 346.5q-2 31 -2 82z" />
<glyph unicode="d" horiz-adv-x="1187" d="M113 475q-1 28 -1 57t1 58q2 90 26.5 178t75.5 158.5t133 114.5t203 44q129 0 211 -47t133 -114v485q0 45 45 45h35q45 0 45 -45v-1364q0 -45 -45 -45h-35q-45 0 -45 45v96q-51 -70 -133 -115.5t-211 -45.5q-121 0 -203 44t-133 114.5t-75.5 158.5t-26.5 178zM238 475 q2 -74 20 -142.5t56 -120.5t98.5 -83t150.5 -31q88 0 149.5 33t101.5 85t59.5 116t21.5 127q2 31 2 80t-2 79q-2 61 -21.5 124t-60.5 112t-102.5 81t-147.5 32q-90 0 -150.5 -32t-98.5 -84t-56 -119.5t-20 -141.5q-1 -28 -1 -57t1 -58z" />
<glyph unicode="e" horiz-adv-x="1118" d="M111 532.5q0 50.5 2 81.5q8 104 41.5 191.5t90 149t136.5 96t180 34.5q215 0 334 -140t119 -388v-31q0 -20 -13.5 -32.5t-33.5 -12.5h-729v-20q2 -70 25.5 -135.5t64.5 -115.5t100 -81t133 -31q66 0 115 16.5t84 38t56.5 44t29.5 34.5q18 27 28.5 32t32.5 5h33 q18 0 31.5 -11t11.5 -30q-2 -29 -31.5 -71.5t-84 -81.5t-132.5 -66.5t-174 -27.5q-98 0 -178 33.5t-137.5 96t-91 149.5t-41.5 192q-2 31 -2 81.5zM238 596h651v8q0 76 -22.5 142.5t-64.5 115.5t-103.5 77t-137.5 28q-78 0 -137 -28t-101 -77t-63.5 -115.5t-21.5 -142.5v-8z " />
<glyph unicode="f" horiz-adv-x="737" d="M39 991v29q0 45 45 45h182v117q0 68 13.5 129t48 106t94 72t153.5 27h107q45 0 45 -46v-28q0 -45 -45 -45h-107q-109 0 -146.5 -58.5t-37.5 -167.5v-106h271q45 0 45 -45v-29q0 -45 -45 -45h-271v-901q0 -45 -45 -45h-35q-45 0 -45 45v901h-182q-45 0 -45 45z" />
<glyph unicode="g" horiz-adv-x="1189" d="M115 475q-1 29 -1 58t1 57q2 90 25.5 178t75.5 158.5t134 114.5t203 44q127 0 210 -47t134 -114v94q0 20 12.5 33.5t32.5 13.5h33q20 0 33.5 -13.5t13.5 -33.5v-998q0 -98 -20.5 -184t-72.5 -149.5t-140.5 -100.5t-225.5 -37q-131 0 -213 36t-130 84t-65.5 99.5 t-19.5 81.5q-2 20 12.5 34t32.5 14h29q16 0 27.5 -7.5t21.5 -35.5q8 -25 25.5 -56.5t50.5 -61.5t86 -49.5t133 -19.5q84 0 148.5 15.5t107.5 53.5t65.5 101.5t22.5 161.5v141q-51 -70 -134 -115.5t-210 -45.5q-121 0 -203 44t-134 114.5t-75.5 158.5t-25.5 178zM240 475 q2 -74 19 -142.5t55 -120.5t99.5 -83t151.5 -31q88 0 149.5 33t101.5 85t58.5 115.5t22.5 127.5q2 31 2 73.5t-2 73.5q-4 63 -22.5 127t-58.5 116t-101.5 85t-149.5 33q-90 0 -151.5 -32t-99.5 -84t-55 -119.5t-19 -141.5q-1 -28 -1 -57t1 -58z" />
<glyph unicode="h" horiz-adv-x="1210" d="M168 45v1364q0 45 45 45h35q45 0 45 -45v-485q55 72 133 116.5t211 44.5q104 0 182 -34.5t130 -96t79 -145.5t27 -182v-582q0 -45 -45 -45h-35q-45 0 -45 45v571q0 164 -80 257.5t-234 93.5q-147 0 -235 -92.5t-88 -258.5v-571q0 -45 -45 -45h-35q-45 0 -45 45z" />
<glyph unicode="i" horiz-adv-x="456" d="M143 1329v78q0 20 12.5 33.5t32.5 13.5h78q20 0 33.5 -13.5t13.5 -33.5v-78q0 -20 -13 -32.5t-34 -12.5h-78q-45 0 -45 45zM166 45v975q0 45 45 45h35q45 0 45 -45v-975q0 -45 -45 -45h-35q-45 0 -45 45z" />
<glyph unicode="j" horiz-adv-x="477" d="M-53 -315q0 45 45 45h8q61 0 98 17t56.5 48t24.5 72t5 88v1065q0 45 45 45h35q45 0 45 -45v-1065q0 -72 -13 -135.5t-48 -109.5t-94.5 -72.5t-153.5 -26.5h-8q-45 0 -45 45v29zM162 1329v78q0 20 12 33.5t33 13.5h78q20 0 33.5 -13.5t13.5 -33.5v-78q0 -20 -13.5 -32.5 t-33.5 -12.5h-78q-45 0 -45 45z" />
<glyph unicode="k" horiz-adv-x="997" d="M168 45v1364q0 45 45 45h35q45 0 45 -45v-725l457 346q29 23 42 29t44 6h38q41 0 41 -41q0 -8 -5 -19.5t-21 -21.5l-518 -393l569 -508q27 -25 27 -41q0 -41 -41 -41h-33q-31 0 -44 5t-42 30l-514 457v-447q0 -45 -45 -45h-35q-45 0 -45 45z" />
<glyph unicode="l" horiz-adv-x="460" d="M168 45v1364q0 45 45 45h35q45 0 45 -45v-1364q0 -45 -45 -45h-35q-45 0 -45 45z" />
<glyph unicode="m" horiz-adv-x="1798" d="M166 45v975q0 45 45 45h35q45 0 45 -45v-72q51 66 120.5 101.5t172.5 35.5q117 0 198.5 -49t128.5 -143q47 88 138.5 140t210.5 52q82 0 151.5 -28.5t120.5 -83.5t80.5 -138t29.5 -194v-596q0 -45 -45 -45h-34q-45 0 -45 45v576q0 100 -22.5 166.5t-61.5 106.5 t-89.5 56.5t-105.5 16.5q-47 0 -95 -16.5t-88 -56.5t-64.5 -106.5t-24.5 -166.5v-576q0 -45 -45 -45h-35q-45 0 -45 45v576q0 100 -24.5 166.5t-63.5 106.5t-89.5 56.5t-101.5 16.5q-47 0 -95 -16.5t-88 -56.5t-64.5 -105.5t-24.5 -165.5v-578q0 -45 -45 -45h-35 q-45 0 -45 45z" />
<glyph unicode="n" horiz-adv-x="1208" d="M166 45v975q0 45 45 45h35q45 0 45 -45v-96q55 72 133 116.5t211 44.5q104 0 182 -34.5t130 -96t79 -145.5t27 -182v-582q0 -45 -45 -45h-35q-45 0 -45 45v571q0 164 -80 257.5t-234 93.5q-147 0 -235 -92.5t-88 -258.5v-571q0 -45 -45 -45h-35q-45 0 -45 45z" />
<glyph unicode="o" horiz-adv-x="1142" d="M115 532.5q0 24.5 1 47t1 38.5q2 98 32.5 184.5t87 149t140 98t194.5 35.5t195 -35.5t140.5 -98t86 -148.5t33.5 -185q0 -16 1 -38.5t1 -47t-1 -48t-1 -38.5q-4 -98 -33.5 -184t-86 -148.5t-140.5 -98t-195 -35.5t-194.5 35.5t-140 98t-87 148.5t-32.5 184q0 14 -1 38 t-1 48.5zM240 532q0 -45 2 -75q6 -176 96 -267.5t233 -91.5t233.5 91.5t96.5 267.5q2 31 2 75.5t-2 75.5q-6 176 -96 267.5t-234 91.5q-143 0 -233 -91.5t-96 -267.5q-2 -31 -2 -76z" />
<glyph unicode="p" horiz-adv-x="1189" d="M168 -344v1364q0 45 45 45h35q45 0 45 -45v-96q51 70 133 115.5t211 45.5q119 0 202 -42t134 -110.5t74.5 -155.5t27.5 -177q2 -31 2 -67.5t-2 -67.5q-4 -90 -27.5 -177t-74.5 -156t-134 -110.5t-202 -41.5q-129 0 -211 47t-133 114v-485q0 -45 -45 -45h-35q-45 0 -45 45 zM291 526q0 -49 2 -80q2 -61 21.5 -123.5t60.5 -111.5t102.5 -81t147.5 -32q90 0 150.5 31t98 83t55 120.5t21.5 142.5q1 29 1 57.5t-1 57.5q-4 74 -21.5 141.5t-55 119.5t-98 84t-150.5 32q-88 0 -149.5 -33t-101.5 -85t-59.5 -116t-21.5 -127q-2 -31 -2 -80z" />
<glyph unicode="q" horiz-adv-x="1189" d="M113 532.5q0 36.5 2 67.5q2 90 26.5 177t75.5 155.5t133 110.5t203 42q129 0 211 -46t133 -115v96q0 45 45 45h35q45 0 45 -45v-1364q0 -45 -45 -45h-35q-45 0 -45 45v485q-51 -68 -133 -114.5t-211 -46.5q-121 0 -203 41.5t-133 110.5t-75.5 156t-26.5 177 q-2 31 -2 67.5zM240 475q2 -74 20.5 -142.5t56 -120.5t98 -83t150.5 -31q86 0 147.5 32t102.5 81t60.5 111.5t21.5 123.5q2 31 2 80t-2 80q-2 63 -21.5 127t-59.5 116t-101.5 85t-149.5 33q-90 0 -150.5 -32t-98 -84t-56 -119.5t-20.5 -141.5q-1 -28 -1 -57t1 -58z" />
<glyph unicode="r" horiz-adv-x="712" d="M166 45v973q0 20 12 33.5t33 13.5h33q20 0 33.5 -13.5t13.5 -33.5v-94q74 141 278 141h76q45 0 45 -45v-29q0 -45 -45 -45h-88q-123 0 -194.5 -71.5t-71.5 -194.5v-635q0 -20 -13.5 -32.5t-33.5 -12.5h-33q-45 0 -45 45z" />
<glyph unicode="s" horiz-adv-x="1007" d="M96 220q0 19 14 29q16 11 31 11h31q12 0 21.5 -4t23.5 -23q18 -27 43 -51t58.5 -42.5t78.5 -30t107 -11.5q123 0 202.5 47.5t79.5 139.5q0 43 -17 71.5t-57 52t-106.5 43t-163.5 42.5q-98 23 -159.5 52t-96 67t-47 82t-12.5 93q0 53 22.5 106.5t68.5 95.5t114.5 68.5 t161.5 26.5q100 0 170.5 -26.5t115.5 -63.5t66.5 -74.5t23.5 -60.5q2 -20 -12 -32.5t-33 -12.5h-30q-29 0 -45 27q-16 25 -35 47t-47.5 39.5t-70.5 28t-103 10.5q-123 0 -182.5 -50.5t-59.5 -128.5q0 -35 12 -61.5t47 -50t95.5 -44t158.5 -42.5q98 -23 165 -51.5t107 -65.5 t57 -84t17 -104q0 -61 -26.5 -116.5t-77.5 -97.5t-127 -66.5t-176 -24.5q-109 0 -184.5 28.5t-125.5 67.5q-48 39 -72 79q-26 44 -26 65z" />
<glyph unicode="t" horiz-adv-x="735" d="M41 991v29q0 45 45 45h160v344q0 45 45 45h35q45 0 45 -45v-344h254q45 0 45 -45v-29q0 -45 -45 -45h-254v-596q0 -111 35.5 -171t128.5 -60h110q45 0 45 -45v-29q0 -45 -45 -45h-121q-80 0 -134 26.5t-86 72.5t-45 108.5t-13 134.5v604h-160q-45 0 -45 45z" />
<glyph unicode="u" horiz-adv-x="1198" d="M156 438v582q0 45 45 45h35q45 0 45 -45v-571q0 -350 305 -351q147 0 234 92.5t87 258.5v571q0 45 45 45h35q45 0 45 -45v-975q0 -45 -45 -45h-35q-45 0 -45 45v96q-55 -72 -133 -116.5t-209 -44.5q-104 0 -181 34.5t-128 96t-75.5 145.5t-24.5 182z" />
<glyph unicode="v" d="M74 1024q0 16 12 28.5t29 12.5h43q20 0 30.5 -11.5t14.5 -19.5l346 -884l346 884q4 8 14.5 19.5t30.5 11.5h43q16 0 28.5 -12.5t12.5 -28.5q0 -10 -4 -23l-377 -950q-10 -23 -27.5 -37t-50.5 -14h-33q-33 0 -50 14.5t-27 36.5l-377 950q-4 12 -4 23z" />
<glyph unicode="w" horiz-adv-x="1609" d="M84 1024q0 16 12.5 28.5t28.5 12.5h39q20 0 31.5 -11.5t13.5 -19.5l252 -852l268 842q4 12 16.5 26.5t38.5 14.5h41q27 0 39.5 -14.5t16.5 -26.5l268 -842l252 852q2 8 13 19.5t32 11.5h39q16 0 28.5 -12.5t12.5 -28.5q0 -10 -4 -23l-289 -950q-10 -27 -23.5 -39 t-42.5 -12h-34q-55 0 -70 51l-258 807l-258 -807q-14 -51 -70 -51h-35q-29 0 -42 12.5t-23 38.5l-289 950q-4 12 -4 23z" />
<glyph unicode="x" horiz-adv-x="1060" d="M72 41q0 8 3 17.5t13 23.5l361 463l-343 438q-10 14 -13 23.5t-3 17.5q0 16 12.5 28.5t28.5 12.5h43q20 0 30.5 -10.5l20.5 -20.5l307 -395l308 393q10 10 20 21.5t31 11.5h41q16 0 28.5 -12.5t12.5 -28.5q0 -8 -3 -17.5t-14 -23.5l-346 -444l361 -457q10 -14 13 -23.5 t3 -17.5q0 -16 -12 -28.5t-29 -12.5h-43q-20 0 -31.5 10t-19.5 21l-324 413l-323 -413l-20.5 -20.5t-30.5 -10.5h-41q-16 0 -28.5 12.5t-12.5 28.5z" />
<glyph unicode="y" horiz-adv-x="1089" d="M72 1024q0 16 12 28.5t29 12.5h43q20 0 30.5 -9t16.5 -22l344 -811l352 811q6 12 16.5 21.5t30.5 9.5h41q16 0 28.5 -12.5t12.5 -28.5q0 -10 -12 -41l-582 -1341q-6 -12 -16 -21.5t-31 -9.5h-41q-16 0 -28.5 12t-12.5 29q0 10 12 41l158 368l-391 922q-12 31 -12 41z" />
<glyph unicode="z" horiz-adv-x="1003" d="M86 45v35q0 16 9 31.5t20 31.5l602 803h-565q-45 0 -46 45v29q0 45 46 45h688q45 0 45 -45v-35q0 -16 -9.5 -31.5t-19.5 -31.5l-598 -803h623q45 0 45 -45v-29q0 -45 -45 -45h-750q-45 0 -45 45z" />
<glyph unicode="{" horiz-adv-x="704" d="M76 621v24q0 25 10 41t39 35q63 41 94 98.5t31 177.5q0 141 8 251t43 185.5t103.5 115.5t189.5 40h10q45 0 45 -45v-28q0 -45 -45 -46h-10q-80 0 -124 -29.5t-65.5 -92t-25.5 -159.5t-4 -235q0 -121 -37 -197.5t-117 -123.5q80 -47 117 -124t37 -198q0 -137 4 -235.5 t25.5 -160.5t65.5 -92t124 -30h10q45 0 45 -45v-29q0 -45 -45 -45h-10q-121 0 -189.5 40t-103.5 117t-43 186.5t-8 250.5q0 121 -31 178.5t-94 98.5q-29 18 -39 34.5t-10 41.5z" />
<glyph unicode="|" horiz-adv-x="448" d="M162 -381v2171q0 45 45 45h35q45 0 45 -45v-2171q0 -45 -45 -45h-35q-45 0 -45 45z" />
<glyph unicode="}" horiz-adv-x="704" d="M55 -252q0 45 45 45h11q80 0 124 30t65.5 92t25.5 160.5t4 235.5q0 121 36.5 198t116.5 124q-80 47 -116.5 124t-36.5 197q0 137 -4 234.5t-25.5 160t-66 92t-123.5 29.5h-11q-45 0 -45 46v28q0 45 45 45h11q121 0 189.5 -40t103 -115.5t43 -185t8.5 -251.5 q0 -121 30.5 -178t94.5 -98q29 -18 39 -34.5t10 -41.5v-24q0 -25 -10.5 -41.5t-38.5 -34.5q-63 -41 -94 -98.5t-31 -178.5q0 -141 -8.5 -250.5t-43 -186.5t-103.5 -117t-189 -40h-11q-45 0 -45 45v29z" />
<glyph unicode="~" horiz-adv-x="1153" d="M158 551v47q0 18 19.5 38.5t50 37t71.5 27t84 10.5q63 0 112.5 -11.5t92.5 -24.5t87 -24.5t99 -11.5q39 0 68.5 11.5t51 24.5t38 24.5t31.5 11.5q35 0 34 -35v-47q0 -18 -19.5 -39t-50 -37t-71.5 -26.5t-84 -10.5q-61 0 -108.5 11.5t-91.5 24.5t-89 24.5t-102 11.5 q-41 0 -69.5 -11.5t-50 -24.5t-38 -24.5t-30.5 -11.5q-35 0 -35 35z" />
<glyph unicode="&#xa1;" horiz-adv-x="444" d="M137 942q0 -20 12.5 -33.5t32.5 -13.5h78q20 0 33.5 13.5t13.5 33.5v78q0 20 -13 32.5t-34 12.5h-78q-45 0 -45 -45v-78zM160 -324q0 -45 45 -45h35q45 0 45 45v1051q0 45 -45 45h-35q-45 0 -45 -45v-1051z" />
<glyph unicode="&#xa2;" horiz-adv-x="1114" d="M123 533q0 51 2 81q4 203 102.5 326t272.5 141v123q0 45 45 45h33q45 0 45 -45v-121q104 -10 175.5 -48t117 -87t64.5 -100t21 -88q2 -20 -12 -32.5t-33 -12.5h-28q-23 0 -31 9t-18 34q-43 117 -126 163t-192 46q-61 0 -116.5 -20.5t-97.5 -64.5t-68.5 -113t-28.5 -165 q-2 -31 -2 -71.5t2 -71.5q2 -96 28.5 -165t68.5 -113t97.5 -64.5t116.5 -20.5q109 0 192 46t126 163q10 25 18 34t31 9h28q18 0 33 -12t12 -33q-2 -37 -21 -89t-64.5 -101t-117 -87t-175.5 -46v-142q0 -45 -45 -45h-33q-45 0 -45 45v144q-174 18 -272.5 140t-102.5 327 q-2 31 -2 82z" />
<glyph unicode="&#xa3;" horiz-adv-x="1347" d="M106 39q4 145 74 220t168 91q-4 70 -15 140.5t-24 154.5h-157q-45 0 -46 45v33q0 45 46 45h143q-6 76 -6 166q0 102 26.5 196.5t83 167t143.5 115.5t208 43q115 0 200.5 -37t144 -98t88 -141t31.5 -166q0 -18 -12 -31.5t-31 -13.5h-36q-16 0 -29.5 12t-18.5 31 q-27 154 -108.5 237.5t-230.5 83.5q-82 0 -143.5 -29.5t-103.5 -83t-62.5 -127t-20.5 -161.5q0 -45 2 -85t6 -79h432q45 0 45 -45v-33q0 -45 -45 -45h-414q10 -74 20.5 -146.5t14.5 -152.5q76 -14 130.5 -52t102.5 -78t96 -71.5t112 -31.5q49 0 79.5 14t50 41t30 61.5 t16.5 75.5q2 10 12 24.5t27 14.5h51q18 0 28.5 -11t10.5 -28q-4 -154 -88 -234.5t-217 -80.5q-98 0 -165 38t-121 83t-105.5 82.5t-118.5 37.5q-49 0 -80 -14t-49.5 -38.5t-28.5 -59.5t-16 -76q-2 -10 -8.5 -26.5t-34.5 -16.5h-48q-18 0 -28.5 11.5t-10.5 27.5z" />
<glyph unicode="&#xa4;" horiz-adv-x="1183" d="M145.5 238.5q-0.5 17.5 14.5 31.5l88 86q-86 111 -86 258t86 258l-88 86q-14 14 -14.5 32t14.5 32l24 25q14 14 31.5 14t32.5 -14l86 -89q53 41 118.5 63.5t139.5 22.5q72 0 138.5 -22.5t119.5 -63.5l86 89q14 14 31.5 14t31.5 -14l25 -25q14 -14 14 -31.5t-14 -32.5 l-88 -86q41 -53 63.5 -119.5t22.5 -138.5q0 -74 -22.5 -139t-63.5 -119l88 -86q14 -14 14 -31.5t-14 -31.5l-25 -25q-14 -14 -31.5 -14t-31.5 14l-86 88q-111 -86 -258 -86t-258 86l-86 -88q-14 -14 -31.5 -14t-32.5 14l-24 25q-14 14 -14.5 31.5zM285 614 q0 -63 24.5 -119.5t65.5 -97.5t97 -65.5t120 -24.5q63 0 119.5 24.5t97.5 65.5t65.5 97.5t24.5 119.5t-24.5 120t-65.5 97.5t-97.5 65.5t-119.5 25t-119.5 -25t-97.5 -65.5t-65.5 -97.5t-24.5 -120z" />
<glyph unicode="&#xa5;" horiz-adv-x="1200" d="M74 1393q0 16 12 28.5t29 12.5h45q29 0 47 -31l393 -664l393 664q18 31 47 31h45q16 0 28.5 -12.5t12.5 -28.5q0 -10 -8 -27l-440 -745h291q45 0 45 -46v-32q0 -45 -45 -45h-305v-123h305q45 0 45 -45v-33q0 -45 -45 -45h-305v-207q0 -45 -46 -45h-36q-45 0 -45 45v207 h-306q-45 0 -45 45v33q0 45 45 45h306v123h-306q-45 0 -45 45v32q0 45 45 46h291l-440 745q-8 16 -8 27z" />
<glyph unicode="&#xa6;" horiz-adv-x="460" d="M168 45v635q0 45 45 45h35q45 0 45 -45v-635q0 -45 -45 -45h-35q-45 0 -45 45zM168 1018v635q0 45 45 45h35q45 0 45 -45v-635q0 -45 -45 -45h-35q-45 0 -45 45z" />
<glyph unicode="&#xa7;" horiz-adv-x="1132" d="M94 676q0 88 47 152.5t113 113.5q-31 37 -42 82t-11 98q0 59 23.5 118.5t69.5 107t116.5 77t164.5 29.5q104 0 180 -26.5t124.5 -66.5t72 -89t25.5 -92q2 -18 -10.5 -29.5t-32.5 -11.5h-37q-16 0 -27.5 8t-21.5 33q-10 27 -26.5 55.5t-47.5 50t-78 35.5t-121 14 q-129 0 -189 -62.5t-60 -150.5q0 -47 12 -78.5t45 -56t87 -45t138 -45.5q115 -35 197 -73t134 -84t75.5 -106t23.5 -142q0 -88 -47 -153t-112 -114q31 -37 42 -82t11 -98q0 -59 -23.5 -118.5t-69.5 -106.5t-117 -77t-165 -30q-104 0 -180 27t-124 66.5t-71.5 89t-25.5 92.5 q-2 18 10 29.5t33 11.5h37q16 0 27 -8.5t22 -32.5q10 -29 26.5 -56.5t47 -49t77.5 -36t121 -14.5q129 0 189.5 62.5t60.5 150.5q0 47 -12.5 79t-45 56.5t-87 45t-138.5 44.5q-115 35 -196.5 73t-134 84t-76 106.5t-23.5 142.5zM219 674q0 -47 13.5 -85t52.5 -73t108 -67.5 t182 -65.5q131 -39 207 -82q63 41 97 84t34 109q0 45 -13 83.5t-52 73.5t-108.5 67t-182.5 66q-131 39 -207 82q-63 -41 -97 -84t-34 -108z" />
<glyph unicode="&#xa8;" horiz-adv-x="770" d="M143 1329v78q0 20 12.5 33.5t32.5 13.5h78q20 0 33.5 -13.5t13.5 -33.5v-78q0 -20 -13 -32.5t-34 -12.5h-78q-45 0 -45 45zM457 1329v78q0 20 12 33.5t33 13.5h78q20 0 33.5 -13.5t13.5 -33.5v-78q0 -20 -13.5 -32.5t-33.5 -12.5h-78q-45 0 -45 45z" />
<glyph unicode="&#xa9;" horiz-adv-x="1708" d="M117 717q0 154 58 288t157.5 233t233.5 157.5t288 58.5t288 -58.5t233.5 -157.5t157.5 -233.5t58 -287.5q0 -154 -58 -288t-157.5 -233.5t-233.5 -157.5t-288 -58t-288 58t-233.5 157.5t-157.5 233.5t-58 288zM240 717q0 -127 48 -241t131 -198.5t195.5 -135t239.5 -50.5 t239.5 50.5t195.5 135t131 198.5t48 241t-48 240.5t-131 198.5t-195.5 135t-239.5 50t-239.5 -50t-195.5 -135t-131 -198.5t-48 -240.5zM520 718.5q0 38.5 2 69.5q2 66 25.5 125.5t65.5 103.5t102.5 70.5t138.5 26.5q82 0 143.5 -20.5t101.5 -53t59.5 -70.5t19.5 -75 q0 -45 -45 -45h-35q-23 0 -32 11t-15 28q-18 49 -63.5 77.5t-133.5 28.5q-61 0 -101 -20.5t-62.5 -51t-32 -67.5t-11.5 -68t-2 -69.5t2 -69.5t11.5 -67.5t32 -67.5t62.5 -51.5t101 -20.5q88 0 133 29t64 78q6 16 15 27.5t32 11.5h35q45 0 45 -45q0 -37 -19.5 -75 t-59.5 -70.5t-101.5 -53t-143.5 -20.5q-78 0 -138.5 25.5t-102.5 70.5t-65.5 104.5t-25.5 124.5q-2 31 -2 69.5z" />
<glyph unicode="&#xaa;" horiz-adv-x="751" d="M119 1034q0 82 62.5 132.5t168.5 66.5l129 18q0 4 -2 16.5t-12 25t-30.5 22.5t-57.5 10q-35 0 -54.5 -6t-34 -14.5t-26.5 -14.5t-29 -6h-34q-20 0 -33.5 7t-11.5 28q2 14 19 35.5t47 42t72 34t91 13.5q102 0 161.5 -61.5t59.5 -157.5v-291q0 -45 -45 -45h-35 q-45 0 -45 45v14q-16 -29 -65 -49t-105 -20q-90 0 -140 45t-50 110zM246 1038q0 -23 23.5 -36t58.5 -13q84 0 117.5 47t33.5 109l-96 -15q-86 -12 -111.5 -36.5t-25.5 -55.5z" />
<glyph unicode="&#xab;" horiz-adv-x="1234" d="M96 657v33q2 16 8.5 33.5t26.5 38.5l385 373q29 25 49 24q41 0 41 -41v-35q0 -25 -8 -39t-29 -34l-346 -336l346 -336q20 -20 28.5 -34.5t8.5 -39.5v-35q0 -41 -41 -41q-20 0 -49 25l-385 373q-20 20 -26.5 37.5t-8.5 33.5zM606 657v33q2 16 8.5 33.5t26.5 38.5l385 373 q29 25 49 24q41 0 41 -41v-35q0 -25 -8 -39t-29 -34l-346 -336l346 -336q20 -20 28.5 -34.5t8.5 -39.5v-35q0 -41 -41 -41q-20 0 -49 25l-385 373q-20 20 -26.5 37.5t-8.5 33.5z" />
<glyph unicode="&#xac;" horiz-adv-x="1189" d="M156 643v29q0 45 45 45h788q45 0 45 -45v-279q0 -45 -45 -45h-37q-45 0 -45 45v205h-706q-45 0 -45 45z" />
<glyph unicode="&#xad;" horiz-adv-x="997" d="M152 600v29q0 45 45 45h604q45 0 45 -45v-29q0 -45 -45 -45h-604q-45 0 -45 45z" />
<glyph unicode="&#xae;" horiz-adv-x="1708" d="M117 717q0 154 58 288t157.5 233t233.5 157.5t288 58.5t288 -58.5t233.5 -157.5t157.5 -233.5t58 -287.5q0 -154 -58 -288t-157.5 -233.5t-233.5 -157.5t-288 -58t-288 58t-233.5 157.5t-157.5 233.5t-58 288zM240 717q0 -127 48 -241t131 -198.5t195.5 -135t239.5 -50.5 t239.5 50.5t195.5 135t131 198.5t48 241t-48 240.5t-131 198.5t-195.5 135t-239.5 50t-239.5 -50t-195.5 -135t-131 -198.5t-48 -240.5zM578 389v660q0 45 45 45h262q57 0 108 -12.5t89 -40t59.5 -73.5t21.5 -112q0 -84 -41 -137t-106 -78l141 -223q8 -12 8 -29 q0 -16 -11 -30.5t-34 -14.5h-28q-23 0 -36.5 10.5t-23.5 28.5l-147 235h-183v-229q0 -45 -45 -45h-34q-45 0 -45 45zM702 737h179q47 0 77.5 10.5t48 27t24.5 38t7 43.5q0 23 -7 44.5t-24.5 37.5t-48 26.5t-77.5 10.5h-179v-238z" />
<glyph unicode="&#xaf;" horiz-adv-x="784" d="M143 1319v29q0 45 45 45h408q45 0 45 -45v-29q0 -45 -45 -45h-408q-45 0 -45 45z" />
<glyph unicode="&#xb0;" horiz-adv-x="774" d="M109 1186q0 57 21.5 106t59 85t89 56.5t108.5 20.5t108.5 -20.5t89.5 -56.5t59.5 -85t21.5 -106t-21.5 -106.5t-59.5 -85.5t-89.5 -56t-108.5 -20t-108.5 20t-89 56t-59 85.5t-21.5 106.5zM231 1186q0 -70 43 -113t113 -43t113 43t43 113t-43 112.5t-113 42.5t-113 -42.5 t-43 -112.5z" />
<glyph unicode="&#xb1;" horiz-adv-x="1138" d="M141 809v29q0 45 45 45h322v315q0 45 45 45h33q45 0 45 -45v-315h321q45 0 45 -45v-29q0 -45 -45 -45h-321v-324q0 -45 -45 -45h-33q-45 0 -45 45v324h-322q-45 0 -45 45zM162 45v29q0 45 45 45h725q45 0 45 -45v-29q0 -45 -45 -45h-725q-45 0 -45 45z" />
<glyph unicode="&#xb2;" horiz-adv-x="686" d="M63 762v35q0 16 10.5 30.5t39.5 36.5q98 70 166.5 118t111.5 86t62.5 72t19.5 77q0 53 -40 83.5t-93 30.5q-41 0 -66.5 -10t-40 -24.5t-21.5 -30t-11 -23.5q-12 -23 -22.5 -30t-26.5 -7h-31q-41 0 -37 39q2 37 23.5 72t55.5 63.5t80 46t97 17.5q57 0 104.5 -18.5t80 -50 t50 -72.5t17.5 -86q0 -57 -18.5 -102.5t-57.5 -88.5t-101.5 -89t-148.5 -105h312q45 0 45 -46v-24q0 -45 -45 -45h-469q-45 0 -46 45z" />
<glyph unicode="&#xb3;" horiz-adv-x="688" d="M59 870q-2 20 11.5 29.5t23.5 9.5h41q14 0 25.5 -9t19.5 -19q8 -12 17.5 -22.5t25 -18.5t42 -13.5t69.5 -5.5q68 0 114 27t46 76q0 59 -41 80.5t-107 21.5h-82q-45 0 -45 45v35q0 23 25 47l182 166h-291q-45 0 -45 45v25q0 45 45 45h406q45 0 45 -45v-25q0 -23 -5.5 -40 t-27.5 -40l-156 -143q117 -6 166 -68.5t49 -148.5q0 -102 -71.5 -159.5t-206.5 -57.5t-203 49t-72 114z" />
<glyph unicode="&#xb4;" horiz-adv-x="636" d="M143 1251q0 16 11 27l141 170q16 20 30.5 28.5t45.5 8.5h84q39 0 39 -39q0 -14 -11 -25l-223 -182q-16 -14 -29.5 -17t-33.5 -3h-21q-33 0 -33 32z" />
<glyph unicode="&#xb5;" horiz-adv-x="1200" d="M156 -365v1385q0 45 45 45h35q45 0 45 -45v-571q0 -82 28.5 -147.5t73.5 -111t102.5 -69t114.5 -23.5t114.5 23.5t102.5 69t74 111t29 147.5v571q0 45 45 45h34q45 0 45 -45v-975q0 -45 -45 -45h-34q-45 0 -45 45v96q-53 -70 -126 -115.5t-194 -45.5t-193.5 46 t-125.5 115v-506q0 -45 -45 -45h-35q-45 0 -45 45z" />
<glyph unicode="&#xb6;" horiz-adv-x="1005" d="M66 1071q0 76 28.5 141.5t77.5 114.5t114.5 78t141.5 29h367q45 0 45 -45v-1549q0 -45 -45 -45h-35q-45 0 -45 45v1475h-162v-1475q0 -45 -45 -45h-35q-45 0 -45 45v869q-76 0 -141.5 28.5t-114.5 77.5t-77.5 114.5t-28.5 141.5z" />
<glyph unicode="&#xb7;" horiz-adv-x="675" d="M133 614q0 86 59.5 145.5t145.5 59.5t145.5 -59.5t59.5 -145.5t-59.5 -145t-145.5 -59t-145.5 59t-59.5 145z" />
<glyph unicode="&#xb8;" horiz-adv-x="655" d="M147.5 -375.5q-8.5 17.5 4.5 29.5l28 27q12 12 23.5 8t26 -14.5t35 -20.5t54.5 -10q35 0 62 21.5t27 60.5q0 37 -27 57t-62 20q-25 0 -43 -6t-31.5 -10t-24.5 -4t-23 12l-33 35q-10 12 -3 28.5t13 32.5l72 164h119l-86 -174q27 16 77 17q68 0 112 -47.5t44 -120.5 q0 -74 -47 -128.5t-146 -52.5q-43 0 -79.5 12.5t-60 29t-32 34z" />
<glyph unicode="&#xb9;" horiz-adv-x="473" d="M37 1244q2 18 18 30l197 145q20 14 47 15h29q45 0 45 -45v-627q0 -45 -45 -45h-29q-45 0 -45 45v514l-129 -96q-16 -10 -33.5 -8t-30.5 18l-14 20q-12 16 -10 34z" />
<glyph unicode="&#xba;" horiz-adv-x="739" d="M123 1161.5q0 39.5 2 55.5q2 57 23.5 100t54.5 70.5t76 42t92 14.5t92 -14.5t75.5 -42t53 -70.5t24.5 -100q2 -16 2 -55.5t-2 -55.5q-6 -117 -72.5 -172t-172.5 -55t-173 55t-73 172q-2 16 -2 55.5zM248 1161.5q0 -28.5 2 -45.5q6 -119 121 -119t121 119q2 16 2 45t-2 45 q-4 53 -34 86t-87 33t-87 -32.5t-34 -86.5q-2 -16 -2 -44.5z" />
<glyph unicode="&#xbb;" horiz-adv-x="1234" d="M119 229v35q0 25 8 39t29 35l346 336l-346 336q-20 20 -28.5 34.5t-8.5 38.5v35q0 41 41 41q20 0 49 -24l385 -373q20 -20 26.5 -37.5t8.5 -34.5v-33q-2 -16 -8.5 -33.5t-26.5 -37.5l-385 -373q-29 -25 -49 -25q-41 0 -41 41zM629 229v35q0 25 8 39t29 35l346 336 l-346 336q-20 20 -28.5 34.5t-8.5 38.5v35q0 41 41 41q20 0 49 -24l385 -373q20 -20 26.5 -37.5t8.5 -34.5v-33q-2 -16 -8.5 -33.5t-26.5 -37.5l-385 -373q-29 -25 -49 -25q-41 0 -41 41z" />
<glyph unicode="&#xbc;" horiz-adv-x="1394" d="M92 1244q2 18 18 30l197 145q20 14 47 15h29q45 0 45 -45v-627q0 -45 -45 -45h-29q-45 0 -45 45v514l-129 -96q-16 -10 -33.5 -8t-30.5 18l-14 20q-12 16 -10 34zM112 41q0 4 2 10t6 12l1010 1332q14 18 26.5 28.5t41.5 10.5h34q41 0 41 -41q0 -4 -2 -10.5t-6 -12.5 l-1009 -1331q-14 -18 -26.5 -28.5t-41.5 -10.5h-35q-41 0 -41 41zM704 198v27q0 4 3 20.5t22 41.5l280 393q16 23 31.5 30t30.5 7h53q45 0 45 -45v-404h72q45 0 45 -45v-25q0 -45 -45 -45h-72v-108q0 -45 -45 -45h-29q-45 0 -45 45v108h-301q-45 0 -45 45zM858 268h192v277z " />
<glyph unicode="&#xbd;" horiz-adv-x="1474" d="M92 1244q2 18 18 30l197 145q20 14 47 15h29q45 0 45 -45v-627q0 -45 -45 -45h-29q-45 0 -45 45v514l-129 -96q-16 -10 -33.5 -8t-30.5 18l-14 20q-12 16 -10 34zM112 41q0 4 2 10t6 12l1010 1332q14 18 26.5 28.5t41.5 10.5h34q41 0 41 -41q0 -4 -2 -10.5t-6 -12.5 l-1009 -1331q-14 -18 -26.5 -28.5t-41.5 -10.5h-35q-41 0 -41 41zM819 45v35q0 16 10.5 30.5t39.5 36.5q98 70 166.5 118t111.5 86t62.5 72t19.5 77q0 53 -40 83.5t-93 30.5q-41 0 -66.5 -10t-40 -24.5t-21.5 -30t-11 -23.5q-12 -23 -22.5 -30t-26.5 -7h-31q-41 0 -37 39 q2 37 23.5 72t55.5 63.5t80 46t97 17.5q57 0 104.5 -18.5t80 -50t50 -72.5t17.5 -86q0 -57 -18.5 -102.5t-57.5 -88.5t-101.5 -89t-148.5 -105h312q45 0 45 -46v-24q0 -45 -45 -45h-469q-45 0 -46 45z" />
<glyph unicode="&#xbe;" horiz-adv-x="1519" d="M96 870q-2 20 11.5 29.5t23.5 9.5h41q14 0 25.5 -9t19.5 -19q8 -12 17.5 -22.5t25 -18.5t42 -13.5t69.5 -5.5q68 0 114 27t46 76q0 59 -41 80.5t-107 21.5h-82q-45 0 -45 45v35q0 23 25 47l182 166h-291q-45 0 -45 45v25q0 45 45 45h406q45 0 45 -45v-25q0 -23 -5.5 -40 t-27.5 -40l-156 -143q117 -6 166 -68.5t49 -148.5q0 -102 -71.5 -159.5t-206.5 -57.5t-203 49t-72 114zM239 41q0 4 2 10t6 12l1010 1332q14 18 26.5 28.5t41.5 10.5h34q41 0 41 -41q0 -4 -2 -10.5t-6 -12.5l-1009 -1331q-14 -18 -26.5 -28.5t-41.5 -10.5h-35q-41 0 -41 41z M831 198v27q0 4 3 20.5t22 41.5l280 393q16 23 31.5 30t30.5 7h53q45 0 45 -45v-404h72q45 0 45 -45v-25q0 -45 -45 -45h-72v-108q0 -45 -45 -45h-29q-45 0 -45 45v108h-301q-45 0 -45 45zM985 268h192v277z" />
<glyph unicode="&#xbf;" horiz-adv-x="1015" d="M74 -6q6 72 34.5 129t68.5 107.5t86 95.5t85 92t64.5 98t25.5 113v98q0 45 45 45h35q45 0 45 -45v-98q0 -78 -25.5 -140.5t-63.5 -114.5t-83 -98.5t-86 -90.5t-70.5 -90t-35.5 -99q-8 -63 16.5 -113.5t67.5 -84t101 -51t118 -17.5q121 0 210 64.5t115 219.5q4 29 18.5 37 t31.5 8h32q18 0 30.5 -11t12.5 -30q-2 -86 -35.5 -159.5t-94 -129t-141.5 -87t-179 -31.5q-113 0 -196 32.5t-136 87t-77.5 123t-18.5 140.5zM418 942v78q0 20 13 32.5t34 12.5h78q45 0 45 -45v-78q0 -20 -12.5 -33.5t-32.5 -13.5h-78q-20 0 -33.5 13.5t-13.5 33.5z" />
<glyph unicode="&#xc0;" horiz-adv-x="1331" d="M49 41q0 10 4 22l518 1330q8 20 21.5 30.5t38.5 10.5h69q25 0 38.5 -10.5t21.5 -30.5l518 -1330q4 -12 4 -22q0 -16 -12.5 -28.5t-28.5 -12.5h-41q-20 0 -30.5 11.5t-14.5 19.5l-127 327h-725l-127 -327q-4 -8 -14 -19.5t-31 -11.5h-41q-16 0 -28.5 12.5t-12.5 28.5z M352 481h627l-313 807zM376 1763q0 39 39 39h94q31 0 45.5 -8t30.5 -29l142 -170q10 -10 10 -26q0 -33 -33 -33h-31q-20 0 -33.5 3t-29.5 17l-223 183q-10 10 -11 24z" />
<glyph unicode="&#xc1;" horiz-adv-x="1331" d="M49 41q0 10 4 22l518 1330q8 20 21.5 30.5t38.5 10.5h69q25 0 38.5 -10.5t21.5 -30.5l518 -1330q4 -12 4 -22q0 -16 -12.5 -28.5t-28.5 -12.5h-41q-20 0 -30.5 11.5t-14.5 19.5l-127 327h-725l-127 -327q-4 -8 -14 -19.5t-31 -11.5h-41q-16 0 -28.5 12.5t-12.5 28.5z M352 481h627l-313 807zM587 1569q0 16 11 26l141 170q16 20 30.5 28.5t45.5 8.5h94q39 0 39 -39q0 -14 -10 -24l-224 -183q-16 -14 -29.5 -17t-33.5 -3h-31q-33 0 -33 33z" />
<glyph unicode="&#xc2;" horiz-adv-x="1331" d="M49 41q0 10 4 22l518 1330q8 20 21.5 30.5t38.5 10.5h69q25 0 38.5 -10.5t21.5 -30.5l518 -1330q4 -12 4 -22q0 -16 -12.5 -28.5t-28.5 -12.5h-41q-20 0 -30.5 11.5t-14.5 19.5l-127 327h-725l-127 -327q-4 -8 -14 -19.5t-31 -11.5h-41q-16 0 -28.5 12.5t-12.5 28.5z M352 481h627l-313 807zM387 1559q0 16 25 40l178 175q23 23 36 25.5t30 2.5h20q16 0 29.5 -3t36.5 -25l178 -175q25 -25 24 -40q0 -23 -28 -23h-35q-12 0 -27.5 4t-23.5 10l-164 123l-164 -123q-8 -6 -23.5 -10t-27.5 -4h-35q-29 0 -29 23z" />
<glyph unicode="&#xc3;" horiz-adv-x="1331" d="M49 41q0 10 4 22l518 1330q8 20 21.5 30.5t38.5 10.5h69q25 0 38.5 -10.5t21.5 -30.5l518 -1330q4 -12 4 -22q0 -16 -12.5 -28.5t-28.5 -12.5h-41q-20 0 -30.5 11.5t-14.5 19.5l-127 327h-725l-127 -327q-4 -8 -14 -19.5t-31 -11.5h-41q-16 0 -28.5 12.5t-12.5 28.5z M352 481h627l-313 807zM411 1569q0 29 12.5 57.5t33 51t48 37t58.5 14.5q37 0 63.5 -11.5t50 -24t44 -23.5t43.5 -11q18 0 27 9t16.5 21.5t15.5 21.5t25 9h41q16 0 24 -10t8 -22q0 -29 -12 -59t-33.5 -52.5t-49.5 -36.5t-58 -14q-35 0 -62.5 11t-51.5 23.5t-44 23.5t-41 11 q-18 0 -27.5 -9t-16.5 -20.5t-15.5 -20.5t-24.5 -9h-41q-16 0 -24.5 10.5t-8.5 22.5z" />
<glyph unicode="&#xc4;" horiz-adv-x="1331" d="M49 41q0 10 4 22l518 1330q8 20 21.5 30.5t38.5 10.5h69q25 0 38.5 -10.5t21.5 -30.5l518 -1330q4 -12 4 -22q0 -16 -12.5 -28.5t-28.5 -12.5h-41q-20 0 -30.5 11.5t-14.5 19.5l-127 327h-725l-127 -327q-4 -8 -14 -19.5t-31 -11.5h-41q-16 0 -28.5 12.5t-12.5 28.5z M352 481h627l-313 807zM393 1581v78q0 20 12.5 33.5t32.5 13.5h78q20 0 33.5 -13.5t13.5 -33.5v-78q0 -20 -13 -32.5t-34 -12.5h-78q-45 0 -45 45zM768 1581v78q0 20 12.5 33.5t32.5 13.5h78q20 0 33.5 -13.5t13.5 -33.5v-78q0 -20 -13 -32.5t-34 -12.5h-78q-45 0 -45 45z " />
<glyph unicode="&#xc5;" horiz-adv-x="1331" d="M49 41q0 10 4 22l518 1330q8 20 21.5 30.5t38.5 10.5h69q25 0 38.5 -10.5t21.5 -30.5l518 -1330q4 -12 4 -22q0 -16 -12.5 -28.5t-28.5 -12.5h-41q-20 0 -30.5 11.5t-14.5 19.5l-127 327h-725l-127 -327q-4 -8 -14 -19.5t-31 -11.5h-41q-16 0 -28.5 12.5t-12.5 28.5z M352 481h627l-313 807zM501 1669q0 68 48.5 111t115.5 43q68 0 116 -43t48 -111t-48 -110.5t-116 -42.5t-116 42.5t-48 110.5zM604 1669q0 -27 17.5 -44t43.5 -17q27 0 44.5 17t17.5 44t-17.5 44.5t-44.5 17.5t-44 -17.5t-17 -44.5z" />
<glyph unicode="&#xc6;" horiz-adv-x="1884" d="M10 41q0 12 8 29q16 27 101 176q37 63 91 159.5t132 235.5t183.5 324.5t242.5 429.5q12 23 25.5 31t27.5 8h887q47 0 47 -48v-30q0 -45 -47 -45h-715v-523h670q47 0 47 -47v-30q0 -45 -47 -45h-670v-543h731q47 0 48 -47v-31q0 -45 -48 -45h-815q-45 0 -45 45v313h-536 q-70 -123 -107 -188.5t-53 -95.5q-20 -37 -25 -43q-16 -31 -45 -31h-47q-16 0 -28.5 12.5t-12.5 28.5zM397 481h467v815z" />
<glyph unicode="&#xc7;" horiz-adv-x="1333" d="M131 715q0 96 4 184q4 119 37 221.5t99.5 176t167 115.5t239.5 42q145 0 247.5 -42t168 -106.5t96.5 -142.5t35 -151q2 -18 -11.5 -29.5t-31.5 -11.5h-41q-16 0 -28.5 9t-16.5 34q-20 92 -57.5 152.5t-89.5 97t-120.5 52t-150.5 15.5q-188 0 -297 -104.5t-117 -337.5 q-6 -170 0 -344q8 -233 116.5 -338t297.5 -105q82 0 150.5 15.5t120.5 52.5t89 97.5t58 152.5q4 25 16 34t29 9h41q18 0 31.5 -11.5t11.5 -29.5q-4 -74 -35 -151.5t-96.5 -142.5t-168 -106.5t-247.5 -41.5l-47 -99q27 16 78 17q68 0 111.5 -47.5t43.5 -120.5 q0 -74 -47 -128.5t-145 -52.5q-43 0 -80 12.5t-60.5 29t-31.5 34t4 29.5l28 27q12 12 23.5 8t26 -14.5t35 -20.5t55.5 -10t61.5 21.5t26.5 60.5q0 37 -26.5 57t-61.5 20q-25 0 -43.5 -6t-31.5 -10t-24.5 -4t-23.5 12l-33 35q-10 12 -3 28.5t13 32.5l41 97q-111 16 -190.5 63 t-131.5 119t-79 164t-31 201q-4 84 -4 180z" />
<glyph unicode="&#xc8;" horiz-adv-x="1212" d="M193 45v1341q0 47 45 48h798q47 0 47 -48v-30q0 -45 -47 -45h-714v-523h669q47 0 47 -47v-30q0 -45 -47 -45h-669v-543h731q47 0 47 -47v-31q0 -45 -47 -45h-815q-45 0 -45 45zM356 1763q0 39 39 39h94q31 0 45.5 -8t30.5 -29l142 -170q10 -10 10 -26q0 -33 -33 -33h-31 q-20 0 -33.5 3t-29.5 17l-223 183q-10 10 -11 24z" />
<glyph unicode="&#xc9;" horiz-adv-x="1212" d="M193 45v1341q0 47 45 48h798q47 0 47 -48v-30q0 -45 -47 -45h-714v-523h669q47 0 47 -47v-30q0 -45 -47 -45h-669v-543h731q47 0 47 -47v-31q0 -45 -47 -45h-815q-45 0 -45 45zM561 1569q0 16 11 26l141 170q16 20 30.5 28.5t45.5 8.5h94q39 0 39 -39q0 -14 -10 -24 l-224 -183q-16 -14 -29.5 -17t-33.5 -3h-31q-33 0 -33 33z" />
<glyph unicode="&#xca;" horiz-adv-x="1212" d="M193 45v1341q0 47 45 48h798q47 0 47 -48v-30q0 -45 -47 -45h-714v-523h669q47 0 47 -47v-30q0 -45 -47 -45h-669v-543h731q47 0 47 -47v-31q0 -45 -47 -45h-815q-45 0 -45 45zM366 1559q0 16 25 40l178 175q23 23 36 25.5t30 2.5h20q16 0 29.5 -3t36.5 -25l178 -175 q25 -25 24 -40q0 -23 -28 -23h-35q-12 0 -27.5 4t-23.5 10l-164 123l-164 -123q-8 -6 -23.5 -10t-27.5 -4h-35q-29 0 -29 23z" />
<glyph unicode="&#xcb;" horiz-adv-x="1212" d="M193 45v1341q0 47 45 48h798q47 0 47 -48v-30q0 -45 -47 -45h-714v-523h669q47 0 47 -47v-30q0 -45 -47 -45h-669v-543h731q47 0 47 -47v-31q0 -45 -47 -45h-815q-45 0 -45 45zM372 1581v78q0 20 12.5 33.5t32.5 13.5h78q20 0 33.5 -13.5t13.5 -33.5v-78q0 -20 -13 -32.5 t-34 -12.5h-78q-45 0 -45 45zM747 1581v78q0 20 12.5 33.5t32.5 13.5h78q20 0 33.5 -13.5t13.5 -33.5v-78q0 -20 -13 -32.5t-34 -12.5h-78q-45 0 -45 45z" />
<glyph unicode="&#xcc;" horiz-adv-x="514" d="M-35 1763q0 39 39 39h94q31 0 45.5 -8t30.5 -29l142 -170q10 -10 10 -26q0 -33 -33 -33h-31q-20 0 -33.5 3t-29.5 17l-223 183q-10 10 -11 24zM193 45v1344q0 45 45 45h38q45 0 46 -45v-1344q0 -45 -46 -45h-38q-45 0 -45 45z" />
<glyph unicode="&#xcd;" horiz-adv-x="514" d="M193 45v1344q0 45 45 45h38q45 0 46 -45v-1344q0 -45 -46 -45h-38q-45 0 -45 45zM194 1569q0 16 11 26l141 170q16 20 30.5 28.5t45.5 8.5h94q39 0 39 -39q0 -14 -10 -24l-224 -183q-16 -14 -29.5 -17t-33.5 -3h-31q-33 0 -33 33z" />
<glyph unicode="&#xce;" horiz-adv-x="514" d="M-19 1559q0 16 25 40l178 175q23 23 36 25.5t30 2.5h20q16 0 29.5 -3t36.5 -25l178 -175q25 -25 24 -40q0 -23 -28 -23h-35q-12 0 -27.5 4t-23.5 10l-164 123l-164 -123q-8 -6 -23.5 -10t-27.5 -4h-35q-29 0 -29 23zM193 45v1344q0 45 45 45h38q45 0 46 -45v-1344 q0 -45 -46 -45h-38q-45 0 -45 45z" />
<glyph unicode="&#xcf;" horiz-adv-x="514" d="M-13 1581v78q0 20 12.5 33.5t32.5 13.5h78q20 0 33.5 -13.5t13.5 -33.5v-78q0 -20 -13 -32.5t-34 -12.5h-78q-45 0 -45 45zM193 45v1344q0 45 45 45h38q45 0 46 -45v-1344q0 -45 -46 -45h-38q-45 0 -45 45zM362 1581v78q0 20 12.5 33.5t32.5 13.5h78q20 0 33.5 -13.5 t13.5 -33.5v-78q0 -20 -13 -32.5t-34 -12.5h-78q-45 0 -45 45z" />
<glyph unicode="&#xd0;" horiz-adv-x="1398" d="M31 705v32q0 45 45 45h129v604q0 47 45 48h436q162 0 270.5 -36t174 -106.5t94 -174t30.5 -236.5q2 -92 2 -163t-2 -163q-4 -141 -31.5 -245.5t-92 -173t-171 -102.5t-264.5 -34h-446q-45 0 -45 45v614h-129q-45 0 -45 46zM334 123h352q123 0 206 24.5t134 76.5t74.5 136 t25.5 205q0 45 1 82t1 71t-1 69.5t-1 82.5q-2 113 -26.5 196t-77.5 137t-138 81t-208 27h-342v-529h307q45 0 45 -45v-32q0 -45 -45 -46h-307v-536z" />
<glyph unicode="&#xd1;" horiz-adv-x="1400" d="M193 45v1341q0 47 45 48h43q20 0 29 -10.5t14 -14.5l755 -1155v1132q0 47 45 48h37q47 0 47 -48v-1339q0 -47 -45 -47h-45q-20 0 -29.5 10t-13.5 15l-753 1151v-1131q0 -45 -48 -45h-36q-45 0 -45 45zM446 1569q0 29 12.5 57.5t33 51t48 37t58.5 14.5q37 0 63.5 -11.5 t50 -24t44 -23.5t43.5 -11q18 0 27 9t16.5 21.5t15.5 21.5t25 9h41q16 0 24 -10t8 -22q0 -29 -12 -59t-33.5 -52.5t-49.5 -36.5t-58 -14q-35 0 -62.5 11t-51.5 23.5t-44 23.5t-41 11q-18 0 -27.5 -9t-16.5 -20.5t-15.5 -20.5t-24.5 -9h-41q-16 0 -24.5 10.5t-8.5 22.5z" />
<glyph unicode="&#xd2;" horiz-adv-x="1355" d="M133 717q0 80 4 172q4 143 44 248.5t110.5 176t168 105.5t218.5 35q119 0 217 -35t169 -105.5t110.5 -176t44.5 -248.5q4 -92 4 -172t-4 -172q-8 -291 -147.5 -428t-393.5 -137q-256 0 -394.5 137t-146.5 428q-4 92 -4 172zM262 717q0 -37 1 -77t3 -85q4 -121 36 -206 t86 -140t128 -81t162 -26t161.5 26t128 81t86 140t36.5 206q2 45 2 85v77v75.5t-2 86.5q-4 119 -36 204.5t-87.5 141t-129 81t-159.5 25.5t-160 -25.5t-129 -81t-87 -141.5t-36 -204q-2 -47 -3 -86t-1 -76zM387 1763q0 39 39 39h94q31 0 45.5 -8t30.5 -29l142 -170 q10 -10 10 -26q0 -33 -33 -33h-31q-20 0 -33.5 3t-29.5 17l-223 183q-10 10 -11 24z" />
<glyph unicode="&#xd3;" horiz-adv-x="1355" d="M133 717q0 80 4 172q4 143 44 248.5t110.5 176t168 105.5t218.5 35q119 0 217 -35t169 -105.5t110.5 -176t44.5 -248.5q4 -92 4 -172t-4 -172q-8 -291 -147.5 -428t-393.5 -137q-256 0 -394.5 137t-146.5 428q-4 92 -4 172zM262 717q0 -37 1 -77t3 -85q4 -121 36 -206 t86 -140t128 -81t162 -26t161.5 26t128 81t86 140t36.5 206q2 45 2 85v77v75.5t-2 86.5q-4 119 -36 204.5t-87.5 141t-129 81t-159.5 25.5t-160 -25.5t-129 -81t-87 -141.5t-36 -204q-2 -47 -3 -86t-1 -76zM610 1569q0 16 11 26l141 170q16 20 30.5 28.5t45.5 8.5h94 q39 0 39 -39q0 -14 -10 -24l-224 -183q-16 -14 -29.5 -17t-33.5 -3h-31q-33 0 -33 33z" />
<glyph unicode="&#xd4;" horiz-adv-x="1355" d="M133 717q0 80 4 172q4 143 44 248.5t110.5 176t168 105.5t218.5 35q119 0 217 -35t169 -105.5t110.5 -176t44.5 -248.5q4 -92 4 -172t-4 -172q-8 -291 -147.5 -428t-393.5 -137q-256 0 -394.5 137t-146.5 428q-4 92 -4 172zM262 717q0 -37 1 -77t3 -85q4 -121 36 -206 t86 -140t128 -81t162 -26t161.5 26t128 81t86 140t36.5 206q2 45 2 85v77v75.5t-2 86.5q-4 119 -36 204.5t-87.5 141t-129 81t-159.5 25.5t-160 -25.5t-129 -81t-87 -141.5t-36 -204q-2 -47 -3 -86t-1 -76zM399 1559q0 16 25 40l178 175q23 23 36 25.5t30 2.5h20 q16 0 29.5 -3t36.5 -25l178 -175q25 -25 24 -40q0 -23 -28 -23h-35q-12 0 -27.5 4t-23.5 10l-164 123l-164 -123q-8 -6 -23.5 -10t-27.5 -4h-35q-29 0 -29 23z" />
<glyph unicode="&#xd5;" horiz-adv-x="1355" d="M133 717q0 80 4 172q4 143 44 248.5t110.5 176t168 105.5t218.5 35q119 0 217 -35t169 -105.5t110.5 -176t44.5 -248.5q4 -92 4 -172t-4 -172q-8 -291 -147.5 -428t-393.5 -137q-256 0 -394.5 137t-146.5 428q-4 92 -4 172zM262 717q0 -37 1 -77t3 -85q4 -121 36 -206 t86 -140t128 -81t162 -26t161.5 26t128 81t86 140t36.5 206q2 45 2 85v77v75.5t-2 86.5q-4 119 -36 204.5t-87.5 141t-129 81t-159.5 25.5t-160 -25.5t-129 -81t-87 -141.5t-36 -204q-2 -47 -3 -86t-1 -76zM424 1569q0 29 12.5 57.5t33 51t48 37t58.5 14.5q37 0 63.5 -11.5 t50 -24t44 -23.5t43.5 -11q18 0 27 9t16.5 21.5t15.5 21.5t25 9h41q16 0 24 -10t8 -22q0 -29 -12 -59t-33.5 -52.5t-49.5 -36.5t-58 -14q-35 0 -62.5 11t-51.5 23.5t-44 23.5t-41 11q-18 0 -27.5 -9t-16.5 -20.5t-15.5 -20.5t-24.5 -9h-41q-16 0 -24.5 10.5t-8.5 22.5z" />
<glyph unicode="&#xd6;" horiz-adv-x="1355" d="M133 717q0 80 4 172q4 143 44 248.5t110.5 176t168 105.5t218.5 35q119 0 217 -35t169 -105.5t110.5 -176t44.5 -248.5q4 -92 4 -172t-4 -172q-8 -291 -147.5 -428t-393.5 -137q-256 0 -394.5 137t-146.5 428q-4 92 -4 172zM262 717q0 -37 1 -77t3 -85q4 -121 36 -206 t86 -140t128 -81t162 -26t161.5 26t128 81t86 140t36.5 206q2 45 2 85v77v75.5t-2 86.5q-4 119 -36 204.5t-87.5 141t-129 81t-159.5 25.5t-160 -25.5t-129 -81t-87 -141.5t-36 -204q-2 -47 -3 -86t-1 -76zM405 1581v78q0 20 12.5 33.5t32.5 13.5h78q20 0 33.5 -13.5 t13.5 -33.5v-78q0 -20 -13 -32.5t-34 -12.5h-78q-45 0 -45 45zM780 1581v78q0 20 12.5 33.5t32.5 13.5h78q20 0 33.5 -13.5t13.5 -33.5v-78q0 -20 -13 -32.5t-34 -12.5h-78q-45 0 -45 45z" />
<glyph unicode="&#xd7;" horiz-adv-x="1107" d="M137.5 334.5q-0.5 17.5 14.5 32.5l313 313l-313 315q-14 14 -14.5 31.5t14.5 32.5l24 24q14 14 31.5 14.5t32.5 -14.5l313 -315l315 315q14 14 32 14.5t32 -14.5l24 -24q14 -14 14.5 -31.5t-14.5 -32.5l-315 -315l315 -313q14 -14 14.5 -32t-14.5 -32l-24 -24 q-14 -14 -31.5 -14.5t-32.5 14.5l-315 313l-313 -313q-14 -14 -32 -14.5t-32 14.5l-24 24q-14 14 -14.5 31.5z" />
<glyph unicode="&#xd8;" horiz-adv-x="1396" d="M23 457v39q0 23 10 32t35 19l90 35q-4 80 -3 151.5t5 155.5q4 143 44 248.5t110.5 176t167.5 105.5t218 35q217 0 356.5 -112.5t174.5 -342.5l76 29q14 6 26 6q39 0 39 -37v-39q0 -23 -10 -31.5t-35 -19.5l-86 -33q4 -88 4 -164.5t-4 -164.5q-8 -291 -147.5 -428 t-393.5 -137q-236 0 -371.5 114.5t-162.5 360.5l-78 -29q-16 -6 -27 -6q-39 0 -38 37zM284 750.5q-1 -56.5 1 -117.5l821 317q-25 201 -135.5 291t-270.5 90q-86 0 -159.5 -25.5t-129 -81t-87 -141.5t-35.5 -204q-4 -72 -5 -128.5zM291 504q10 -106 44 -182t88 -125.5 t123.5 -72t153.5 -22.5q88 0 162 26t128 81t86 140t36 206q2 78 3 138.5t-1 131.5z" />
<glyph unicode="&#xd9;" horiz-adv-x="1415" d="M180 555v831q0 47 45 48h37q47 0 47 -48v-837q0 -231 107.5 -339t292.5 -108q184 0 290.5 107.5t106.5 339.5v837q0 47 47 48h37q45 0 45 -48v-831q0 -299 -137 -437t-389 -138q-125 0 -223.5 33.5t-166 104t-103.5 179.5t-36 258zM434 1763q0 39 39 39h94q31 0 45.5 -8 t30.5 -29l142 -170q10 -10 10 -26q0 -33 -33 -33h-31q-20 0 -33.5 3t-29.5 17l-223 183q-10 10 -11 24z" />
<glyph unicode="&#xda;" horiz-adv-x="1415" d="M180 555v831q0 47 45 48h37q47 0 47 -48v-837q0 -231 107.5 -339t292.5 -108q184 0 290.5 107.5t106.5 339.5v837q0 47 47 48h37q45 0 45 -48v-831q0 -299 -137 -437t-389 -138q-125 0 -223.5 33.5t-166 104t-103.5 179.5t-36 258zM635 1569q0 16 11 26l141 170 q16 20 30.5 28.5t45.5 8.5h94q39 0 39 -39q0 -14 -10 -24l-224 -183q-16 -14 -29.5 -17t-33.5 -3h-31q-33 0 -33 33z" />
<glyph unicode="&#xdb;" horiz-adv-x="1415" d="M180 555v831q0 47 45 48h37q47 0 47 -48v-837q0 -231 107.5 -339t292.5 -108q184 0 290.5 107.5t106.5 339.5v837q0 47 47 48h37q45 0 45 -48v-831q0 -299 -137 -437t-389 -138q-125 0 -223.5 33.5t-166 104t-103.5 179.5t-36 258zM428 1559q0 16 25 40l178 175 q23 23 36 25.5t30 2.5h20q16 0 29.5 -3t36.5 -25l178 -175q25 -25 24 -40q0 -23 -28 -23h-35q-12 0 -27.5 4t-23.5 10l-164 123l-164 -123q-8 -6 -23.5 -10t-27.5 -4h-35q-29 0 -29 23z" />
<glyph unicode="&#xdc;" horiz-adv-x="1415" d="M180 555v831q0 47 45 48h37q47 0 47 -48v-837q0 -231 107.5 -339t292.5 -108q184 0 290.5 107.5t106.5 339.5v837q0 47 47 48h37q45 0 45 -48v-831q0 -299 -137 -437t-389 -138q-125 0 -223.5 33.5t-166 104t-103.5 179.5t-36 258zM434 1581v78q0 20 12.5 33.5t32.5 13.5 h78q20 0 33.5 -13.5t13.5 -33.5v-78q0 -20 -13 -32.5t-34 -12.5h-78q-45 0 -45 45zM809 1581v78q0 20 12.5 33.5t32.5 13.5h78q20 0 33.5 -13.5t13.5 -33.5v-78q0 -20 -13 -32.5t-34 -12.5h-78q-45 0 -45 45z" />
<glyph unicode="&#xdd;" horiz-adv-x="1294" d="M74 1393q0 16 12 28.5t29 12.5h41q29 0 47 -31l444 -723l445 723q18 31 47 31h41q16 0 28.5 -12.5t12.5 -28.5q0 -10 -9 -27l-499 -819v-502q0 -45 -47 -45h-39q-45 0 -45 45v502l-500 819q-8 16 -8 27zM571 1569q0 16 11 26l141 170q16 20 30.5 28.5t45.5 8.5h94 q39 0 39 -39q0 -14 -10 -24l-224 -183q-16 -14 -29.5 -17t-33.5 -3h-31q-33 0 -33 33z" />
<glyph unicode="&#xde;" horiz-adv-x="1296" d="M193 45v1344q0 45 45 45h38q45 0 46 -45v-248h413q215 0 343 -107.5t128 -316.5t-128 -316.5t-343 -107.5h-413v-248q0 -45 -48 -45h-36q-45 0 -45 45zM322 416h403q180 0 266 76.5t86 224.5q0 147 -86 224t-266 77h-403v-602z" />
<glyph unicode="&#xdf;" horiz-adv-x="1163" d="M168 45v983q0 84 22.5 161t72.5 136t129 94t190 35t189.5 -34t128.5 -87t73.5 -119.5t23.5 -132.5t-17 -117t-44 -89.5t-59.5 -63.5t-63.5 -39q74 -23 121 -61.5t74.5 -87t38 -102.5t10.5 -107q0 -68 -24.5 -141.5t-77 -134t-137.5 -99.5t-204 -39h-153q-45 0 -45 45v29 q0 45 45 45h133q84 0 147.5 22.5t105.5 62.5t63.5 94t21.5 116q0 61 -21.5 115.5t-63.5 94.5t-105.5 63.5t-147.5 23.5h-133q-45 0 -45 45v28q0 45 45 45h112q154 2 226.5 65.5t72.5 186.5q0 111 -79.5 182.5t-210.5 71.5t-210 -78.5t-79 -238.5v-973q0 -45 -45 -45h-35 q-45 0 -45 45z" />
<glyph unicode="&#xe0;" d="M86 285q0 70 29.5 125t83 97t128 69.5t165.5 39.5l323 46v71q0 111 -66.5 172.5t-211.5 61.5q-115 0 -177.5 -44t-78.5 -96q-8 -25 -19.5 -34t-30.5 -9h-28q-18 0 -31.5 13.5t-13.5 31.5q0 29 20.5 72t66.5 84t117.5 70.5t174.5 29.5q121 0 199.5 -32.5t123.5 -85 t62.5 -116t17.5 -124.5v-682q0 -45 -45 -45h-35q-45 0 -45 45v96q-18 -29 -48 -57.5t-73 -51t-102.5 -37.5t-138.5 -15q-74 0 -140.5 23.5t-117 64.5t-80 96t-29.5 121zM211 295q0 -51 23.5 -88t60.5 -61.5t84 -36t94 -11.5q70 0 132.5 23.5t109.5 71t73.5 119t26.5 167.5 v70l-264 -37q-340 -47 -340 -217zM262 1446q0 39 39 39h84q31 0 45.5 -8.5t30.5 -28.5l141 -170q10 -10 11 -27q0 -33 -33 -32h-21q-20 0 -33.5 3t-29.5 17l-223 182q-10 10 -11 25z" />
<glyph unicode="&#xe1;" d="M86 285q0 70 29.5 125t83 97t128 69.5t165.5 39.5l323 46v71q0 111 -66.5 172.5t-211.5 61.5q-115 0 -177.5 -44t-78.5 -96q-8 -25 -19.5 -34t-30.5 -9h-28q-18 0 -31.5 13.5t-13.5 31.5q0 29 20.5 72t66.5 84t117.5 70.5t174.5 29.5q121 0 199.5 -32.5t123.5 -85 t62.5 -116t17.5 -124.5v-682q0 -45 -45 -45h-35q-45 0 -45 45v96q-18 -29 -48 -57.5t-73 -51t-102.5 -37.5t-138.5 -15q-74 0 -140.5 23.5t-117 64.5t-80 96t-29.5 121zM211 295q0 -51 23.5 -88t60.5 -61.5t84 -36t94 -11.5q70 0 132.5 23.5t109.5 71t73.5 119t26.5 167.5 v70l-264 -37q-340 -47 -340 -217zM436 1251q0 16 11 27l141 170q16 20 30.5 28.5t45.5 8.5h84q39 0 39 -39q0 -14 -11 -25l-223 -182q-16 -14 -29.5 -17t-33.5 -3h-21q-33 0 -33 32z" />
<glyph unicode="&#xe2;" d="M86 285q0 70 29.5 125t83 97t128 69.5t165.5 39.5l323 46v71q0 111 -66.5 172.5t-211.5 61.5q-115 0 -177.5 -44t-78.5 -96q-8 -25 -19.5 -34t-30.5 -9h-28q-18 0 -31.5 13.5t-13.5 31.5q0 29 20.5 72t66.5 84t117.5 70.5t174.5 29.5q121 0 199.5 -32.5t123.5 -85 t62.5 -116t17.5 -124.5v-682q0 -45 -45 -45h-35q-45 0 -45 45v96q-18 -29 -48 -57.5t-73 -51t-102.5 -37.5t-138.5 -15q-74 0 -140.5 23.5t-117 64.5t-80 96t-29.5 121zM211 295q0 -51 23.5 -88t60.5 -61.5t84 -36t94 -11.5q70 0 132.5 23.5t109.5 71t73.5 119t26.5 167.5 v70l-264 -37q-340 -47 -340 -217zM254 1241q0 16 25 41l178 174q23 23 36 26t30 3h20q16 0 29.5 -3t36.5 -26l178 -174q25 -25 24 -41q0 -23 -28 -22h-35q-12 0 -27.5 4t-23.5 10l-164 123l-164 -123q-8 -6 -23.5 -10t-27.5 -4h-35q-29 0 -29 22z" />
<glyph unicode="&#xe3;" d="M86 285q0 70 29.5 125t83 97t128 69.5t165.5 39.5l323 46v71q0 111 -66.5 172.5t-211.5 61.5q-115 0 -177.5 -44t-78.5 -96q-8 -25 -19.5 -34t-30.5 -9h-28q-18 0 -31.5 13.5t-13.5 31.5q0 29 20.5 72t66.5 84t117.5 70.5t174.5 29.5q121 0 199.5 -32.5t123.5 -85 t62.5 -116t17.5 -124.5v-682q0 -45 -45 -45h-35q-45 0 -45 45v96q-18 -29 -48 -57.5t-73 -51t-102.5 -37.5t-138.5 -15q-74 0 -140.5 23.5t-117 64.5t-80 96t-29.5 121zM211 295q0 -51 23.5 -88t60.5 -61.5t84 -36t94 -11.5q70 0 132.5 23.5t109.5 71t73.5 119t26.5 167.5 v70l-264 -37q-340 -47 -340 -217zM288 1251q0 59 41 104.5t105 45.5q37 0 61.5 -11.5t45 -23.5t39 -23.5t40.5 -11.5q18 0 27.5 9.5t16.5 21.5t15.5 21.5t24.5 9.5h41q16 0 24.5 -10.5t8.5 -22.5q0 -59 -43 -105.5t-105 -46.5q-35 0 -60.5 11.5t-46 23.5t-38.5 23.5 t-39 11.5q-18 0 -27.5 -9t-16.5 -20.5t-15.5 -20.5t-24.5 -9h-41q-16 0 -24.5 10t-8.5 22z" />
<glyph unicode="&#xe4;" d="M86 285q0 70 29.5 125t83 97t128 69.5t165.5 39.5l323 46v71q0 111 -66.5 172.5t-211.5 61.5q-115 0 -177.5 -44t-78.5 -96q-8 -25 -19.5 -34t-30.5 -9h-28q-18 0 -31.5 13.5t-13.5 31.5q0 29 20.5 72t66.5 84t117.5 70.5t174.5 29.5q121 0 199.5 -32.5t123.5 -85 t62.5 -116t17.5 -124.5v-682q0 -45 -45 -45h-35q-45 0 -45 45v96q-18 -29 -48 -57.5t-73 -51t-102.5 -37.5t-138.5 -15q-74 0 -140.5 23.5t-117 64.5t-80 96t-29.5 121zM211 295q0 -51 23.5 -88t60.5 -61.5t84 -36t94 -11.5q70 0 132.5 23.5t109.5 71t73.5 119t26.5 167.5 v70l-264 -37q-340 -47 -340 -217zM301 1329v78q0 20 12.5 33.5t32.5 13.5h78q20 0 33.5 -13.5t13.5 -33.5v-78q0 -20 -13 -32.5t-34 -12.5h-78q-45 0 -45 45zM615 1329v78q0 20 12 33.5t33 13.5h78q20 0 33.5 -13.5t13.5 -33.5v-78q0 -20 -13.5 -32.5t-33.5 -12.5h-78 q-45 0 -45 45z" />
<glyph unicode="&#xe5;" d="M86 285q0 70 29.5 125t83 97t128 69.5t165.5 39.5l323 46v71q0 111 -66.5 172.5t-211.5 61.5q-115 0 -177.5 -44t-78.5 -96q-8 -25 -19.5 -34t-30.5 -9h-28q-18 0 -31.5 13.5t-13.5 31.5q0 29 20.5 72t66.5 84t117.5 70.5t174.5 29.5q121 0 199.5 -32.5t123.5 -85 t62.5 -116t17.5 -124.5v-682q0 -45 -45 -45h-35q-45 0 -45 45v96q-18 -29 -48 -57.5t-73 -51t-102.5 -37.5t-138.5 -15q-74 0 -140.5 23.5t-117 64.5t-80 96t-29.5 121zM211 295q0 -51 23.5 -88t60.5 -61.5t84 -36t94 -11.5q70 0 132.5 23.5t109.5 71t73.5 119t26.5 167.5 v70l-264 -37q-340 -47 -340 -217zM368 1362q0 68 48.5 111t115.5 43q68 0 116 -43t48 -111t-48 -111t-116 -43t-116 43t-48 111zM471 1362q0 -27 17.5 -44.5t43.5 -17.5q27 0 44.5 17.5t17.5 44.5t-17.5 44t-44.5 17t-44 -17t-17 -44z" />
<glyph unicode="&#xe6;" horiz-adv-x="1804" d="M88 285q0 70 29.5 126t83 99t128 71.5t165.5 41.5l323 45v65q0 111 -66.5 172.5t-211.5 61.5q-115 0 -178.5 -44t-79.5 -96q-8 -25 -19.5 -34t-30.5 -9h-28q-18 0 -31.5 13.5t-13.5 31.5q0 29 21.5 72t67.5 84t118 70.5t174 29.5q156 0 241.5 -52t122.5 -128 q53 80 140 130t217 50q143 0 229 -53t133 -133t62.5 -172t15.5 -170v-31q0 -20 -13.5 -32.5t-33.5 -12.5h-709v-20q2 -100 32 -169t75 -112t99 -62.5t107 -19.5q80 0 158 31t127 102q16 25 27.5 31t34.5 6h24q18 0 30.5 -11t12.5 -30q0 -23 -25.5 -64.5t-77.5 -82.5 t-129 -70.5t-182 -29.5q-152 0 -243.5 63t-139.5 162q-119 -225 -419 -225q-82 0 -149.5 23.5t-116 64.5t-75 96t-26.5 121zM213 295q0 -51 23.5 -88t60.5 -61.5t84 -36t94 -11.5q70 0 132.5 23.5t109.5 71t73.5 119t26.5 167.5v70l-264 -37q-340 -47 -340 -217zM944 596 h631v8q0 78 -19.5 144.5t-58.5 114.5t-98.5 76t-138.5 28q-59 0 -114.5 -21.5t-98.5 -66.5t-72 -114t-31 -161v-8z" />
<glyph unicode="&#xe7;" d="M115 533q0 51 2 81q6 221 120.5 346t331.5 125q109 0 188 -29.5t131 -77.5t77.5 -105.5t27.5 -112.5q2 -20 -12 -32.5t-33 -12.5h-28q-23 0 -31 9t-19 34q-43 117 -117.5 163t-183.5 46q-139 0 -230 -85t-97 -278q-2 -31 -2 -71.5t2 -71.5q6 -193 97 -278t230 -85 q109 0 183.5 46t117.5 163q10 25 18.5 34t31.5 9h28q18 0 32.5 -12t12.5 -33q-2 -55 -27.5 -112.5t-77.5 -105.5t-131 -77.5t-188 -29.5l-47 -99q27 16 78 17q68 0 112 -47.5t44 -120.5q0 -74 -47 -128.5t-146 -52.5q-43 0 -80 12.5t-60.5 29t-31.5 34t4 29.5l29 27 q12 12 23.5 8t25.5 -14.5t34.5 -20.5t55.5 -10t61.5 21.5t26.5 60.5q0 37 -26.5 57t-61.5 20q-25 0 -43 -6t-31.5 -10t-24.5 -4t-24 12l-32 35q-10 12 -3 28.5t13 32.5l43 99q-166 29 -253 148.5t-91 312.5q-2 31 -2 82z" />
<glyph unicode="&#xe8;" horiz-adv-x="1118" d="M111 532.5q0 50.5 2 81.5q8 104 41.5 191.5t90 149t136.5 96t180 34.5q215 0 334 -140t119 -388v-31q0 -20 -13.5 -32.5t-33.5 -12.5h-729v-20q2 -70 25.5 -135.5t64.5 -115.5t100 -81t133 -31q66 0 115 16.5t84 38t56.5 44t29.5 34.5q18 27 28.5 32t32.5 5h33 q18 0 31.5 -11t11.5 -30q-2 -29 -31.5 -71.5t-84 -81.5t-132.5 -66.5t-174 -27.5q-98 0 -178 33.5t-137.5 96t-91 149.5t-41.5 192q-2 31 -2 81.5zM238 596h651v8q0 76 -22.5 142.5t-64.5 115.5t-103.5 77t-137.5 28q-78 0 -137 -28t-101 -77t-63.5 -115.5t-21.5 -142.5v-8z M278 1446q0 39 39 39h84q31 0 45.5 -8.5t30.5 -28.5l141 -170q10 -10 11 -27q0 -33 -33 -32h-21q-20 0 -33.5 3t-29.5 17l-223 182q-10 10 -11 25z" />
<glyph unicode="&#xe9;" horiz-adv-x="1118" d="M111 532.5q0 50.5 2 81.5q8 104 41.5 191.5t90 149t136.5 96t180 34.5q215 0 334 -140t119 -388v-31q0 -20 -13.5 -32.5t-33.5 -12.5h-729v-20q2 -70 25.5 -135.5t64.5 -115.5t100 -81t133 -31q66 0 115 16.5t84 38t56.5 44t29.5 34.5q18 27 28.5 32t32.5 5h33 q18 0 31.5 -11t11.5 -30q-2 -29 -31.5 -71.5t-84 -81.5t-132.5 -66.5t-174 -27.5q-98 0 -178 33.5t-137.5 96t-91 149.5t-41.5 192q-2 31 -2 81.5zM238 596h651v8q0 76 -22.5 142.5t-64.5 115.5t-103.5 77t-137.5 28q-78 0 -137 -28t-101 -77t-63.5 -115.5t-21.5 -142.5v-8z M497 1251q0 16 11 27l141 170q16 20 30.5 28.5t45.5 8.5h84q39 0 39 -39q0 -14 -11 -25l-223 -182q-16 -14 -29.5 -17t-33.5 -3h-21q-33 0 -33 32z" />
<glyph unicode="&#xea;" horiz-adv-x="1118" d="M111 532.5q0 50.5 2 81.5q8 104 41.5 191.5t90 149t136.5 96t180 34.5q215 0 334 -140t119 -388v-31q0 -20 -13.5 -32.5t-33.5 -12.5h-729v-20q2 -70 25.5 -135.5t64.5 -115.5t100 -81t133 -31q66 0 115 16.5t84 38t56.5 44t29.5 34.5q18 27 28.5 32t32.5 5h33 q18 0 31.5 -11t11.5 -30q-2 -29 -31.5 -71.5t-84 -81.5t-132.5 -66.5t-174 -27.5q-98 0 -178 33.5t-137.5 96t-91 149.5t-41.5 192q-2 31 -2 81.5zM238 596h651v8q0 76 -22.5 142.5t-64.5 115.5t-103.5 77t-137.5 28q-78 0 -137 -28t-101 -77t-63.5 -115.5t-21.5 -142.5v-8z M282 1241q0 16 25 41l178 174q23 23 36 26t30 3h20q16 0 29.5 -3t36.5 -26l178 -174q25 -25 24 -41q0 -23 -28 -22h-35q-12 0 -27.5 4t-23.5 10l-164 123l-164 -123q-8 -6 -23.5 -10t-27.5 -4h-35q-29 0 -29 22z" />
<glyph unicode="&#xeb;" horiz-adv-x="1118" d="M111 532.5q0 50.5 2 81.5q8 104 41.5 191.5t90 149t136.5 96t180 34.5q215 0 334 -140t119 -388v-31q0 -20 -13.5 -32.5t-33.5 -12.5h-729v-20q2 -70 25.5 -135.5t64.5 -115.5t100 -81t133 -31q66 0 115 16.5t84 38t56.5 44t29.5 34.5q18 27 28.5 32t32.5 5h33 q18 0 31.5 -11t11.5 -30q-2 -29 -31.5 -71.5t-84 -81.5t-132.5 -66.5t-174 -27.5q-98 0 -178 33.5t-137.5 96t-91 149.5t-41.5 192q-2 31 -2 81.5zM238 596h651v8q0 76 -22.5 142.5t-64.5 115.5t-103.5 77t-137.5 28q-78 0 -137 -28t-101 -77t-63.5 -115.5t-21.5 -142.5v-8z M319 1329v78q0 20 12.5 33.5t32.5 13.5h78q20 0 33.5 -13.5t13.5 -33.5v-78q0 -20 -13 -32.5t-34 -12.5h-78q-45 0 -45 45zM633 1329v78q0 20 12 33.5t33 13.5h78q20 0 33.5 -13.5t13.5 -33.5v-78q0 -20 -13.5 -32.5t-33.5 -12.5h-78q-45 0 -45 45z" />
<glyph unicode="&#xec;" horiz-adv-x="456" d="M-56 1446q0 39 39 39h84q31 0 45.5 -8.5t30.5 -28.5l141 -170q10 -10 11 -27q0 -33 -33 -32h-21q-20 0 -33.5 3t-29.5 17l-223 182q-10 10 -11 25zM166 45v975q0 45 45 45h35q45 0 45 -45v-975q0 -45 -45 -45h-35q-45 0 -45 45z" />
<glyph unicode="&#xed;" horiz-adv-x="456" d="M161 1251q0 16 11 27l141 170q16 20 30.5 28.5t45.5 8.5h84q39 0 39 -39q0 -14 -11 -25l-223 -182q-16 -14 -29.5 -17t-33.5 -3h-21q-33 0 -33 32zM166 45v975q0 45 45 45h35q45 0 45 -45v-975q0 -45 -45 -45h-35q-45 0 -45 45z" />
<glyph unicode="&#xee;" horiz-adv-x="456" d="M-52 1241q0 16 25 41l178 174q23 23 36 26t30 3h20q16 0 29.5 -3t36.5 -26l178 -174q25 -25 24 -41q0 -23 -28 -22h-35q-12 0 -27.5 4t-23.5 10l-164 123l-164 -123q-8 -6 -23.5 -10t-27.5 -4h-35q-29 0 -29 22zM166 45v975q0 45 45 45h35q45 0 45 -45v-975 q0 -45 -45 -45h-35q-45 0 -45 45z" />
<glyph unicode="&#xef;" horiz-adv-x="456" d="M-15 1329v78q0 20 12.5 33.5t32.5 13.5h78q20 0 33.5 -13.5t13.5 -33.5v-78q0 -20 -13 -32.5t-34 -12.5h-78q-45 0 -45 45zM166 45v975q0 45 45 45h35q45 0 45 -45v-975q0 -45 -45 -45h-35q-45 0 -45 45zM299 1329v78q0 20 12 33.5t33 13.5h78q20 0 33.5 -13.5 t13.5 -33.5v-78q0 -20 -13.5 -32.5t-33.5 -12.5h-78q-45 0 -45 45z" />
<glyph unicode="&#xf0;" horiz-adv-x="1126" d="M111 473q0 104 27.5 194.5t85 156t141.5 102.5t194 37q162 0 270 -80q-47 143 -133 250l-196 -76q-16 -6 -27 -6q-39 0 -39 36v39q0 23 10.5 32t34.5 20l127 49q-31 29 -65.5 59.5t-71.5 61.5q-23 16 -29 26t-6 19q0 41 41 41h41q25 0 41 -7.5t33 -19.5 q39 -35 73.5 -66.5t67.5 -66.5l191 74q14 6 26 6q39 0 39 -37v-39q0 -23 -10 -32t-35 -19l-127 -49q43 -57 79 -125t60.5 -153t38 -190.5t15.5 -236.5q0 -104 -28 -195.5t-85 -157t-141 -103t-195 -37.5t-194.5 37.5t-141 103t-85 157t-27.5 195.5zM236 473q0 -78 20 -146.5 t60 -118.5t101.5 -80t141.5 -30t141.5 30t101.5 80t60.5 118.5t20.5 146.5t-20.5 145.5t-60.5 117.5t-101.5 79t-141.5 29t-141.5 -29t-101.5 -79t-60 -117.5t-20 -145.5z" />
<glyph unicode="&#xf1;" horiz-adv-x="1208" d="M166 45v975q0 45 45 45h35q45 0 45 -45v-96q55 72 133 116.5t211 44.5q104 0 182 -34.5t130 -96t79 -145.5t27 -182v-582q0 -45 -45 -45h-35q-45 0 -45 45v571q0 164 -80 257.5t-234 93.5q-147 0 -235 -92.5t-88 -258.5v-571q0 -45 -45 -45h-35q-45 0 -45 45zM364 1251 q0 59 41 104.5t105 45.5q37 0 61.5 -11.5t45 -23.5t39 -23.5t40.5 -11.5q18 0 27.5 9.5t16.5 21.5t15.5 21.5t24.5 9.5h41q16 0 24.5 -10.5t8.5 -22.5q0 -59 -43 -105.5t-105 -46.5q-35 0 -60.5 11.5t-46 23.5t-38.5 23.5t-39 11.5q-18 0 -27.5 -9t-16.5 -20.5t-15.5 -20.5 t-24.5 -9h-41q-16 0 -24.5 10t-8.5 22z" />
<glyph unicode="&#xf2;" horiz-adv-x="1142" d="M115 532.5q0 24.5 1 47t1 38.5q2 98 32.5 184.5t87 149t140 98t194.5 35.5t195 -35.5t140.5 -98t86 -148.5t33.5 -185q0 -16 1 -38.5t1 -47t-1 -48t-1 -38.5q-4 -98 -33.5 -184t-86 -148.5t-140.5 -98t-195 -35.5t-194.5 35.5t-140 98t-87 148.5t-32.5 184q0 14 -1 38 t-1 48.5zM240 532q0 -45 2 -75q6 -176 96 -267.5t233 -91.5t233.5 91.5t96.5 267.5q2 31 2 75.5t-2 75.5q-6 176 -96 267.5t-234 91.5q-143 0 -233 -91.5t-96 -267.5q-2 -31 -2 -76zM288 1446q0 39 39 39h84q31 0 45.5 -8.5t30.5 -28.5l141 -170q10 -10 11 -27 q0 -33 -33 -32h-21q-20 0 -33.5 3t-29.5 17l-223 182q-10 10 -11 25z" />
<glyph unicode="&#xf3;" horiz-adv-x="1142" d="M115 532.5q0 24.5 1 47t1 38.5q2 98 32.5 184.5t87 149t140 98t194.5 35.5t195 -35.5t140.5 -98t86 -148.5t33.5 -185q0 -16 1 -38.5t1 -47t-1 -48t-1 -38.5q-4 -98 -33.5 -184t-86 -148.5t-140.5 -98t-195 -35.5t-194.5 35.5t-140 98t-87 148.5t-32.5 184q0 14 -1 38 t-1 48.5zM240 532q0 -45 2 -75q6 -176 96 -267.5t233 -91.5t233.5 91.5t96.5 267.5q2 31 2 75.5t-2 75.5q-6 176 -96 267.5t-234 91.5q-143 0 -233 -91.5t-96 -267.5q-2 -31 -2 -76zM503 1251q0 16 11 27l141 170q16 20 30.5 28.5t45.5 8.5h84q39 0 39 -39q0 -14 -11 -25 l-223 -182q-16 -14 -29.5 -17t-33.5 -3h-21q-33 0 -33 32z" />
<glyph unicode="&#xf4;" horiz-adv-x="1142" d="M115 532.5q0 24.5 1 47t1 38.5q2 98 32.5 184.5t87 149t140 98t194.5 35.5t195 -35.5t140.5 -98t86 -148.5t33.5 -185q0 -16 1 -38.5t1 -47t-1 -48t-1 -38.5q-4 -98 -33.5 -184t-86 -148.5t-140.5 -98t-195 -35.5t-194.5 35.5t-140 98t-87 148.5t-32.5 184q0 14 -1 38 t-1 48.5zM240 532q0 -45 2 -75q6 -176 96 -267.5t233 -91.5t233.5 91.5t96.5 267.5q2 31 2 75.5t-2 75.5q-6 176 -96 267.5t-234 91.5q-143 0 -233 -91.5t-96 -267.5q-2 -31 -2 -76zM293 1241q0 16 25 41l178 174q23 23 36 26t30 3h20q16 0 29.5 -3t36.5 -26l178 -174 q25 -25 24 -41q0 -23 -28 -22h-35q-12 0 -27.5 4t-23.5 10l-164 123l-164 -123q-8 -6 -23.5 -10t-27.5 -4h-35q-29 0 -29 22z" />
<glyph unicode="&#xf5;" horiz-adv-x="1142" d="M115 532.5q0 24.5 1 47t1 38.5q2 98 32.5 184.5t87 149t140 98t194.5 35.5t195 -35.5t140.5 -98t86 -148.5t33.5 -185q0 -16 1 -38.5t1 -47t-1 -48t-1 -38.5q-4 -98 -33.5 -184t-86 -148.5t-140.5 -98t-195 -35.5t-194.5 35.5t-140 98t-87 148.5t-32.5 184q0 14 -1 38 t-1 48.5zM240 532q0 -45 2 -75q6 -176 96 -267.5t233 -91.5t233.5 91.5t96.5 267.5q2 31 2 75.5t-2 75.5q-6 176 -96 267.5t-234 91.5q-143 0 -233 -91.5t-96 -267.5q-2 -31 -2 -76zM327 1251q0 59 41 104.5t105 45.5q37 0 61.5 -11.5t45 -23.5t39 -23.5t40.5 -11.5 q18 0 27.5 9.5t16.5 21.5t15.5 21.5t24.5 9.5h41q16 0 24.5 -10.5t8.5 -22.5q0 -59 -43 -105.5t-105 -46.5q-35 0 -60.5 11.5t-46 23.5t-38.5 23.5t-39 11.5q-18 0 -27.5 -9t-16.5 -20.5t-15.5 -20.5t-24.5 -9h-41q-16 0 -24.5 10t-8.5 22z" />
<glyph unicode="&#xf6;" horiz-adv-x="1142" d="M115 532.5q0 24.5 1 47t1 38.5q2 98 32.5 184.5t87 149t140 98t194.5 35.5t195 -35.5t140.5 -98t86 -148.5t33.5 -185q0 -16 1 -38.5t1 -47t-1 -48t-1 -38.5q-4 -98 -33.5 -184t-86 -148.5t-140.5 -98t-195 -35.5t-194.5 35.5t-140 98t-87 148.5t-32.5 184q0 14 -1 38 t-1 48.5zM240 532q0 -45 2 -75q6 -176 96 -267.5t233 -91.5t233.5 91.5t96.5 267.5q2 31 2 75.5t-2 75.5q-6 176 -96 267.5t-234 91.5q-143 0 -233 -91.5t-96 -267.5q-2 -31 -2 -76zM329 1329v78q0 20 12.5 33.5t32.5 13.5h78q20 0 33.5 -13.5t13.5 -33.5v-78 q0 -20 -13 -32.5t-34 -12.5h-78q-45 0 -45 45zM643 1329v78q0 20 12 33.5t33 13.5h78q20 0 33.5 -13.5t13.5 -33.5v-78q0 -20 -13.5 -32.5t-33.5 -12.5h-78q-45 0 -45 45z" />
<glyph unicode="&#xf7;" horiz-adv-x="1157" d="M150 602v29q0 45 45 45h768q45 0 45 -45v-29q0 -45 -45 -45h-768q-45 0 -45 45zM483 209v98q0 20 12.5 33.5t32.5 13.5h99q20 0 33.5 -13t13.5 -34v-98q0 -20 -13.5 -32.5t-33.5 -12.5h-99q-45 0 -45 45zM483 926v98q0 20 12.5 33.5t32.5 13.5h99q20 0 33.5 -13.5 t13.5 -33.5v-98q0 -20 -13.5 -32.5t-33.5 -12.5h-99q-45 0 -45 45z" />
<glyph unicode="&#xf8;" horiz-adv-x="1216" d="M31 295v39q0 23 10 32t35 19l80 31q-4 53 -5 103t3 99q2 84 26.5 167t77.5 149.5t138 108.5t212 42q98 0 173 -26.5t127.5 -70.5t85 -103.5t48.5 -124.5l78 31q14 6 27 6q39 0 39 -37v-39q0 -23 -10.5 -32t-34.5 -19l-80 -31q2 -18 3 -43t1 -52.5t-1 -53t-1 -44.5 q-2 -84 -26.5 -166.5t-78 -149.5t-139.5 -108.5t-211 -41.5q-98 0 -170.5 25.5t-126 68.5t-86 100t-51.5 121l-78 -31q-16 -6 -26 -6q-39 0 -39 37zM276.5 543.5q-0.5 -45.5 2.5 -80.5l647 252q-14 68 -45 116t-74 78.5t-93 44t-106 13.5q-63 0 -121.5 -18.5t-103.5 -60.5 t-73.5 -109t-30.5 -161q-2 -29 -2.5 -74.5zM291 340q33 -131 121 -186.5t196 -55.5q63 0 121.5 18.5t104 60.5t73 107.5t31.5 161.5q2 25 2 68t-2 78z" />
<glyph unicode="&#xf9;" horiz-adv-x="1198" d="M156 438v582q0 45 45 45h35q45 0 45 -45v-571q0 -350 305 -351q147 0 234 92.5t87 258.5v571q0 45 45 45h35q45 0 45 -45v-975q0 -45 -45 -45h-35q-45 0 -45 45v96q-55 -72 -133 -116.5t-209 -44.5q-104 0 -181 34.5t-128 96t-75.5 145.5t-24.5 182zM313 1446q0 39 39 39 h84q31 0 45.5 -8.5t30.5 -28.5l141 -170q10 -10 11 -27q0 -33 -33 -32h-21q-20 0 -33.5 3t-29.5 17l-223 182q-10 10 -11 25z" />
<glyph unicode="&#xfa;" horiz-adv-x="1198" d="M156 438v582q0 45 45 45h35q45 0 45 -45v-571q0 -350 305 -351q147 0 234 92.5t87 258.5v571q0 45 45 45h35q45 0 45 -45v-975q0 -45 -45 -45h-35q-45 0 -45 45v96q-55 -72 -133 -116.5t-209 -44.5q-104 0 -181 34.5t-128 96t-75.5 145.5t-24.5 182zM522 1251q0 16 11 27 l141 170q16 20 30.5 28.5t45.5 8.5h84q39 0 39 -39q0 -14 -11 -25l-223 -182q-16 -14 -29.5 -17t-33.5 -3h-21q-33 0 -33 32z" />
<glyph unicode="&#xfb;" horiz-adv-x="1198" d="M156 438v582q0 45 45 45h35q45 0 45 -45v-571q0 -350 305 -351q147 0 234 92.5t87 258.5v571q0 45 45 45h35q45 0 45 -45v-975q0 -45 -45 -45h-35q-45 0 -45 45v96q-55 -72 -133 -116.5t-209 -44.5q-104 0 -181 34.5t-128 96t-75.5 145.5t-24.5 182zM315 1241q0 16 25 41 l178 174q23 23 36 26t30 3h20q16 0 29.5 -3t36.5 -26l178 -174q25 -25 24 -41q0 -23 -28 -22h-35q-12 0 -27.5 4t-23.5 10l-164 123l-164 -123q-8 -6 -23.5 -10t-27.5 -4h-35q-29 0 -29 22z" />
<glyph unicode="&#xfc;" horiz-adv-x="1198" d="M156 438v582q0 45 45 45h35q45 0 45 -45v-571q0 -350 305 -351q147 0 234 92.5t87 258.5v571q0 45 45 45h35q45 0 45 -45v-975q0 -45 -45 -45h-35q-45 0 -45 45v96q-55 -72 -133 -116.5t-209 -44.5q-104 0 -181 34.5t-128 96t-75.5 145.5t-24.5 182zM352 1329v78 q0 20 12.5 33.5t32.5 13.5h78q20 0 33.5 -13.5t13.5 -33.5v-78q0 -20 -13 -32.5t-34 -12.5h-78q-45 0 -45 45zM666 1329v78q0 20 12 33.5t33 13.5h78q20 0 33.5 -13.5t13.5 -33.5v-78q0 -20 -13.5 -32.5t-33.5 -12.5h-78q-45 0 -45 45z" />
<glyph unicode="&#xfd;" horiz-adv-x="1089" d="M72 1024q0 16 12 28.5t29 12.5h43q20 0 30.5 -9t16.5 -22l344 -811l352 811q6 12 16.5 21.5t30.5 9.5h41q16 0 28.5 -12.5t12.5 -28.5q0 -10 -12 -41l-582 -1341q-6 -12 -16 -21.5t-31 -9.5h-41q-16 0 -28.5 12t-12.5 29q0 10 12 41l158 368l-391 922q-12 31 -12 41z M477 1251q0 16 11 27l141 170q16 20 30.5 28.5t45.5 8.5h84q39 0 39 -39q0 -14 -11 -25l-223 -182q-16 -14 -29.5 -17t-33.5 -3h-21q-33 0 -33 32z" />
<glyph unicode="&#xfe;" horiz-adv-x="1189" d="M168 -344v1753q0 45 45 45h35q45 0 45 -45v-485q51 70 133 115.5t211 45.5q119 0 202 -42t134 -110.5t74.5 -155.5t27.5 -177q2 -31 2 -67.5t-2 -67.5q-4 -90 -27.5 -177t-74.5 -156t-134 -110.5t-202 -41.5q-129 0 -211 47t-133 114v-485q0 -45 -45 -45h-35 q-45 0 -45 45zM291 526q0 -49 2 -80q2 -61 21.5 -123.5t60.5 -111.5t102.5 -81t147.5 -32q90 0 150.5 31t98 83t55 120.5t21.5 142.5q2 57 0 115q-4 74 -21.5 141.5t-55 119.5t-98 84t-150.5 32q-88 0 -149.5 -33t-101.5 -85t-59.5 -116t-21.5 -127q-2 -31 -2 -80z" />
<glyph unicode="&#xff;" horiz-adv-x="1089" d="M72 1024q0 16 12 28.5t29 12.5h43q20 0 30.5 -9t16.5 -22l344 -811l352 811q6 12 16.5 21.5t30.5 9.5h41q16 0 28.5 -12.5t12.5 -28.5q0 -10 -12 -41l-582 -1341q-6 -12 -16 -21.5t-31 -9.5h-41q-16 0 -28.5 12t-12.5 29q0 10 12 41l158 368l-391 922q-12 31 -12 41z M305 1329v78q0 20 12.5 33.5t32.5 13.5h78q20 0 33.5 -13.5t13.5 -33.5v-78q0 -20 -13 -32.5t-34 -12.5h-78q-45 0 -45 45zM619 1329v78q0 20 12 33.5t33 13.5h78q20 0 33.5 -13.5t13.5 -33.5v-78q0 -20 -13.5 -32.5t-33.5 -12.5h-78q-45 0 -45 45z" />
<glyph unicode="&#x152;" horiz-adv-x="1843" d="M141 717.5q0 70.5 2 163.5q2 133 31 236.5t94.5 174t173 106.5t271.5 36h956q47 0 47 -48v-30q0 -45 -47 -45h-633v-523h588q47 0 47 -47v-30q0 -45 -47 -45h-588v-543h650q47 0 47 -47v-31q0 -45 -47 -45h-984q-158 0 -264 34t-170.5 102.5t-93.5 173t-31 245.5 q-2 92 -2 162.5zM270 718q0 -34 1 -71t1 -82q2 -121 26 -205t75 -136t134 -76.5t206 -24.5h194v1188h-184q-123 0 -208 -27t-138 -81t-78 -137t-27 -196q0 -47 -1 -82.5t-1 -69.5z" />
<glyph unicode="&#x153;" horiz-adv-x="1906" d="M117 532.5q0 24.5 1 47t1 38.5q2 98 32.5 184.5t87 149t140 98t194.5 35.5q147 0 246 -62t152 -167q55 106 152.5 167.5t232.5 61.5q215 0 333.5 -140t118.5 -388v-31q0 -20 -13 -32.5t-34 -12.5h-729v-20q2 -70 25.5 -135.5t64.5 -115.5t100.5 -81t133.5 -31 q61 0 108 16.5t81 38t55.5 44t29.5 34.5q18 27 28.5 32t33.5 5h32q18 0 31.5 -11t11.5 -30q-2 -29 -31.5 -71.5t-83 -81.5t-129 -66.5t-167.5 -27.5q-135 0 -232.5 60t-152.5 167q-53 -104 -151.5 -165.5t-246.5 -61.5q-111 0 -194.5 35.5t-140 98t-87 148.5t-32.5 184 q0 14 -1 38t-1 48.5zM242 532q0 -45 2 -75q6 -176 96 -267.5t233 -91.5t233.5 91.5t96.5 267.5q2 31 2 75.5t-2 75.5q-6 176 -96 267.5t-234 91.5q-143 0 -233 -91.5t-96 -267.5q-2 -31 -2 -76zM1032 596h651v8q0 76 -22.5 142.5t-64.5 115.5t-103 77t-137 28 q-78 0 -137.5 -28t-101.5 -77t-63.5 -115.5t-21.5 -142.5v-8z" />
<glyph unicode="&#x178;" horiz-adv-x="1294" d="M74 1393q0 16 12 28.5t29 12.5h41q29 0 47 -31l444 -723l445 723q18 31 47 31h41q16 0 28.5 -12.5t12.5 -28.5q0 -10 -9 -27l-499 -819v-502q0 -45 -47 -45h-39q-45 0 -45 45v502l-500 819q-8 16 -8 27zM374 1581v78q0 20 12.5 33.5t32.5 13.5h78q20 0 33.5 -13.5 t13.5 -33.5v-78q0 -20 -13 -32.5t-34 -12.5h-78q-45 0 -45 45zM749 1581v78q0 20 12.5 33.5t32.5 13.5h78q20 0 33.5 -13.5t13.5 -33.5v-78q0 -20 -13 -32.5t-34 -12.5h-78q-45 0 -45 45z" />
<glyph unicode="&#x2c6;" horiz-adv-x="843" d="M143 1241q0 16 25 41l178 174q23 23 36 26t30 3h20q16 0 29.5 -3t36.5 -26l178 -174q25 -25 24 -41q0 -23 -28 -22h-35q-12 0 -27.5 4t-23.5 10l-164 123l-164 -123q-8 -6 -23.5 -10t-27.5 -4h-35q-29 0 -29 22z" />
<glyph unicode="&#x2dc;" horiz-adv-x="776" d="M143 1251q0 59 41 104.5t105 45.5q37 0 61.5 -11.5t45 -23.5t39 -23.5t40.5 -11.5q18 0 27.5 9.5t16.5 21.5t15.5 21.5t24.5 9.5h41q16 0 24.5 -10.5t8.5 -22.5q0 -59 -43 -105.5t-105 -46.5q-35 0 -60.5 11.5t-46 23.5t-38.5 23.5t-39 11.5q-18 0 -27.5 -9t-16.5 -20.5 t-15.5 -20.5t-24.5 -9h-41q-16 0 -24.5 10t-8.5 22z" />
<glyph unicode="&#x2000;" horiz-adv-x="917" />
<glyph unicode="&#x2001;" horiz-adv-x="1835" />
<glyph unicode="&#x2002;" horiz-adv-x="917" />
<glyph unicode="&#x2003;" horiz-adv-x="1835" />
<glyph unicode="&#x2004;" horiz-adv-x="611" />
<glyph unicode="&#x2005;" horiz-adv-x="458" />
<glyph unicode="&#x2006;" horiz-adv-x="305" />
<glyph unicode="&#x2007;" horiz-adv-x="305" />
<glyph unicode="&#x2008;" horiz-adv-x="229" />
<glyph unicode="&#x2009;" horiz-adv-x="367" />
<glyph unicode="&#x200a;" horiz-adv-x="101" />
<glyph unicode="&#x2010;" horiz-adv-x="997" d="M152 600v29q0 45 45 45h604q45 0 45 -45v-29q0 -45 -45 -45h-604q-45 0 -45 45z" />
<glyph unicode="&#x2011;" horiz-adv-x="997" d="M152 600v29q0 45 45 45h604q45 0 45 -45v-29q0 -45 -45 -45h-604q-45 0 -45 45z" />
<glyph unicode="&#x2012;" horiz-adv-x="997" d="M152 600v29q0 45 45 45h604q45 0 45 -45v-29q0 -45 -45 -45h-604q-45 0 -45 45z" />
<glyph unicode="&#x2013;" horiz-adv-x="1181" d="M152 600v29q0 45 45 45h788q45 0 45 -45v-29q0 -45 -45 -45h-788q-45 0 -45 45z" />
<glyph unicode="&#x2014;" horiz-adv-x="1570" d="M152 600v29q0 45 45 45h1177q45 0 45 -45v-29q0 -45 -45 -45h-1177q-45 0 -45 45z" />
<glyph unicode="&#x2018;" horiz-adv-x="450" d="M121 1143q0 18 8 37l88 231q10 20 20.5 31.5t32.5 11.5h35q16 0 24.5 -12t4.5 -31l-39 -246q-4 -25 -15.5 -40t-35.5 -15h-92q-14 0 -22.5 10t-8.5 23z" />
<glyph unicode="&#x2019;" horiz-adv-x="436" d="M131 1153l39 246q4 25 15.5 40t35.5 15h92q14 0 22.5 -10t8.5 -23q0 -18 -8 -37l-88 -231q-10 -20 -20.5 -31.5t-32.5 -11.5h-35q-16 0 -24.5 12.5t-4.5 30.5z" />
<glyph unicode="&#x201a;" horiz-adv-x="485" d="M121 -111l39 246q4 25 15 40t36 15h92q14 0 22.5 -10t8.5 -22q0 -18 -8 -37l-88 -232q-10 -20 -20.5 -31.5t-33.5 -11.5h-34q-16 0 -24.5 12.5t-4.5 30.5z" />
<glyph unicode="&#x201c;" horiz-adv-x="724" d="M121 1143q0 18 8 37l88 231q10 20 20.5 31.5t32.5 11.5h35q16 0 24.5 -12t4.5 -31l-39 -246q-4 -25 -15.5 -40t-35.5 -15h-92q-14 0 -22.5 10t-8.5 23zM395 1143q0 18 8 37l89 231q10 20 20 31.5t33 11.5h35q16 0 24 -12t4 -31l-39 -246q-4 -25 -15 -40t-36 -15h-92 q-14 0 -22.5 10t-8.5 23z" />
<glyph unicode="&#x201d;" horiz-adv-x="710" d="M131 1153l39 246q4 25 15.5 40t35.5 15h92q14 0 22.5 -10t8.5 -23q0 -18 -8 -37l-88 -231q-10 -20 -20.5 -31.5t-32.5 -11.5h-35q-16 0 -24.5 12.5t-4.5 30.5zM406 1153l38 246q4 25 15.5 40t36.5 15h92q14 0 22 -10t8 -23q0 -18 -8 -37l-88 -231q-10 -20 -20 -31.5 t-33 -11.5h-35q-16 0 -24.5 12.5t-3.5 30.5z" />
<glyph unicode="&#x201e;" horiz-adv-x="759" d="M121 -111l39 246q4 25 15 40t36 15h92q14 0 22.5 -10t8.5 -22q0 -18 -8 -37l-88 -232q-10 -20 -20.5 -31.5t-33.5 -11.5h-34q-16 0 -24.5 12.5t-4.5 30.5zM395 -111l39 246q4 25 15.5 40t35.5 15h93q14 0 22 -10t8 -22q0 -18 -8 -37l-88 -232q-10 -20 -20.5 -31.5 t-32.5 -11.5h-35q-16 0 -24.5 12.5t-4.5 30.5z" />
<glyph unicode="&#x2022;" horiz-adv-x="778" d="M184 614q0 86 59.5 145.5t145.5 59.5t145.5 -59.5t59.5 -145.5t-59.5 -145t-145.5 -59t-145.5 59t-59.5 145z" />
<glyph unicode="&#x2026;" horiz-adv-x="1155" d="M150 45v98q0 20 12 33.5t33 13.5h98q20 0 33.5 -13t13.5 -34v-98q0 -20 -13.5 -32.5t-33.5 -12.5h-98q-45 0 -45 45zM484 45v98q0 20 12 33.5t33 13.5h98q20 0 33.5 -13t13.5 -34v-98q0 -20 -13.5 -32.5t-33.5 -12.5h-98q-45 0 -45 45zM818 45v98q0 20 12 33.5t33 13.5 h98q20 0 33.5 -13t13.5 -34v-98q0 -20 -13.5 -32.5t-33.5 -12.5h-98q-45 0 -45 45z" />
<glyph unicode="&#x202f;" horiz-adv-x="367" />
<glyph unicode="&#x2039;" horiz-adv-x="724" d="M96 657v33q2 16 8.5 33.5t26.5 38.5l385 373q29 25 49 24q41 0 41 -41v-35q0 -25 -8 -39t-29 -34l-346 -336l346 -336q20 -20 28.5 -34.5t8.5 -39.5v-35q0 -41 -41 -41q-20 0 -49 25l-385 373q-20 20 -26.5 37.5t-8.5 33.5z" />
<glyph unicode="&#x203a;" horiz-adv-x="724" d="M119 229v35q0 25 8 39t29 35l346 336l-346 336q-20 20 -28.5 34.5t-8.5 38.5v35q0 41 41 41q20 0 49 -24l385 -373q20 -20 26.5 -37.5t8.5 -34.5v-33q-2 -16 -8.5 -33.5t-26.5 -37.5l-385 -373q-29 -25 -49 -25q-41 0 -41 41z" />
<glyph unicode="&#x205f;" horiz-adv-x="458" />
<glyph unicode="&#x20ac;" horiz-adv-x="1486" d="M96 557v33q0 45 45 45h129v164h-129q-45 0 -45 45v33q0 45 45 45h133q6 115 41 213t100.5 168.5t164 110.5t235.5 40q145 0 247.5 -38t168 -97t97.5 -130t36 -136q2 -18 -11.5 -29.5t-31.5 -11.5h-41q-16 0 -27.5 9t-17.5 34q-41 152 -148.5 214t-271.5 62 q-182 0 -288.5 -97t-120.5 -312h456q45 0 45 -45v-33q0 -45 -45 -45h-461v-164h461q45 0 45 -45v-33q0 -45 -45 -45h-456q14 -215 120.5 -312.5t288.5 -97.5q164 0 271.5 62.5t148.5 214.5q6 25 17.5 34t27.5 9h41q18 0 31.5 -11.5t11.5 -29.5q-4 -66 -36 -136.5t-97.5 -130 t-167.5 -97t-248 -37.5q-137 0 -235.5 39.5t-164 110.5t-100 169t-41.5 213h-133q-45 0 -45 45z" />
<glyph unicode="&#x2122;" horiz-adv-x="1280" d="M102 1364v25q0 45 45 45h332q45 0 45 -45v-25q0 -45 -45 -45h-106v-385q0 -45 -45 -45h-29q-45 0 -45 45v385h-107q-45 0 -45 45zM586 934v455q0 45 45 45h28q27 0 41.5 -16.5t22.5 -28.5l127 -203l127 203q8 12 22.5 28.5t40.5 16.5h29q45 0 45 -45v-455q0 -45 -45 -45 h-29q-45 0 -45 45v264l-84 -137q-10 -16 -20 -28.5t-33 -12.5h-16q-23 0 -33 12t-21 29l-83 137v-264q0 -45 -46 -45h-28q-45 0 -45 45z" />
<glyph unicode="&#x25fc;" horiz-adv-x="1064" d="M0 0v1065h1065v-1065h-1065z" />
</font>
</defs>
</svg>
