<?xml version="1.0" standalone="no"?>
<!DOCTYPE svg PUBLIC "-//W3C//DTD SVG 1.1//EN" "http://www.w3.org/Graphics/SVG/1.1/DTD/svg11.dtd" >
<svg xmlns="http://www.w3.org/2000/svg">
<metadata></metadata>
<defs>
<font id="rubiklight_italic" horiz-adv-x="1355" >
<font-face units-per-em="2048" ascent="1638" descent="-410" />
<missing-glyph horiz-adv-x="540" />
<glyph unicode="&#xfb01;" horiz-adv-x="1009" d="M115 991l6 29q10 45 55 45h182l25 117q14 68 44 129t75 106t107.5 72t142.5 27h239q45 0 35 -46l-6 -28q-10 -45 -55 -45h-213q-109 0 -166.5 -57.5t-79.5 -168.5l-23 -106h412q45 0 35 -45l-207 -975q-10 -45 -53 -45h-35q-20 0 -30.5 12.5t-6.5 32.5l190 901h-329 l-193 -901q-10 -45 -53 -45h-35q-20 0 -30.5 12.5t-6.5 32.5l193 901h-182q-43 0 -37 45z" />
<glyph unicode="&#xfb02;" horiz-adv-x="1132" d="M115 991l6 29q10 45 55 45h182l25 117q14 68 44 129t75 106t107.5 72t142.5 27h118q45 0 35 -46l-6 -28q-10 -45 -55 -45h-92q-109 0 -166.5 -57.5t-79.5 -168.5l-23 -106h453l86 405q10 45 53 46h35q20 0 30.5 -12.5t6.5 -33.5l-303 -1425q-10 -45 -53 -45h-35 q-20 0 -30.5 12.5t-6.5 32.5l190 901h-450l-193 -901q-10 -45 -53 -45h-35q-20 0 -30.5 12.5t-6.5 32.5l193 901h-182q-43 0 -37 45z" />
<glyph unicode="&#xfb03;" horiz-adv-x="1587" d="M115 991l6 29q10 45 55 45h182l25 117q14 68 44 129t75 106t107.5 72t142.5 27h118q45 0 35 -46l-6 -28q-10 -45 -55 -45h-92q-109 0 -166.5 -57.5t-79.5 -168.5l-23 -106h453l25 117q14 68 43.5 129t74.5 106t107.5 72t142.5 27h240q45 0 35 -46l-7 -28q-10 -45 -55 -45 h-213q-109 0 -166 -57.5t-80 -168.5l-22 -106h412q45 0 34 -45l-207 -975q-10 -45 -53 -45h-35q-20 0 -30.5 12.5t-5.5 32.5l190 901h-330l-192 -901q-10 -45 -53 -45h-35q-20 0 -30.5 12.5t-6.5 32.5l192 901h-452l-193 -901q-10 -45 -53 -45h-35q-20 0 -30.5 12.5 t-6.5 32.5l193 901h-182q-43 0 -37 45z" />
<glyph unicode="&#xfb04;" horiz-adv-x="1710" d="M115 991l6 29q10 45 55 45h182l25 117q14 68 44 129t75 106t107.5 72t142.5 27h118q45 0 35 -46l-6 -28q-10 -45 -55 -45h-92q-109 0 -166.5 -57.5t-79.5 -168.5l-23 -106h453l25 117q14 68 43.5 129t74.5 106t107.5 72t142.5 27h119q45 0 35 -46l-6 -28q-10 -45 -56 -45 h-92q-109 0 -166 -57.5t-80 -168.5l-22 -106h452l86 405q10 45 54 46h35q20 0 30.5 -12.5t5.5 -33.5l-303 -1425q-10 -45 -53 -45h-35q-20 0 -30.5 12.5t-6.5 32.5l191 901h-451l-192 -901q-10 -45 -53 -45h-35q-20 0 -30.5 12.5t-6.5 32.5l192 901h-452l-193 -901 q-10 -45 -53 -45h-35q-20 0 -30.5 12.5t-6.5 32.5l193 901h-182q-43 0 -37 45z" />
<glyph horiz-adv-x="0" />
<glyph horiz-adv-x="0" />
<glyph unicode="&#xd;" horiz-adv-x="593" />
<glyph unicode=" "  horiz-adv-x="540" />
<glyph unicode="&#x09;" horiz-adv-x="540" />
<glyph unicode="&#xa0;" horiz-adv-x="540" />
<glyph unicode="!" horiz-adv-x="464" d="M29 45l16 78q4 20 19.5 33.5t35.5 13.5h78q20 0 30.5 -13.5t6.5 -33.5l-16 -78q-10 -45 -56 -45h-77q-20 0 -30.5 12.5t-6.5 32.5zM115 338l223 1051q4 20 18.5 32.5t34.5 12.5h35q43 0 37 -45l-223 -1051q-10 -45 -56 -45h-34q-45 0 -35 45z" />
<glyph unicode="&#x22;" horiz-adv-x="696" d="M252 1079l39 334q2 18 15 29.5t32 11.5h92q18 0 27.5 -11t3.5 -30l-101 -334q-10 -39 -45 -39h-39q-31 0 -24 39zM524 1079l39 334q2 18 15.5 29.5t31.5 11.5h92q18 0 27.5 -11t3.5 -30l-100 -334q-10 -39 -45 -39h-39q-31 0 -25 39z" />
<glyph unicode="#" horiz-adv-x="1429" d="M68 436l6 29q10 45 53 45h244l145 401h-250q-45 0 -35 45l7 29q10 45 53 45h268l98 268q8 16 21.5 29.5t34.5 13.5h37q18 0 27 -12t3 -31l-98 -268h342l98 268q8 16 21.5 29.5t34.5 13.5h36q18 0 27.5 -12t3.5 -31l-98 -268h223q20 0 30.5 -12t6.5 -33l-6 -29 q-10 -45 -55 -45h-240l-145 -401h245q20 0 30.5 -12.5t6.5 -32.5l-6 -29q-10 -45 -55 -45h-264l-97 -268q-6 -18 -20.5 -30.5t-34.5 -12.5h-37q-18 0 -28.5 12t-4.5 31q6 12 19 47q10 29 28.5 82t51.5 139h-342l-97 -268q-6 -18 -20 -30.5t-35 -12.5h-37q-18 0 -28.5 12 t-4.5 31q6 12 19 47q10 29 28.5 82t51.5 139h-228q-45 0 -34 45zM496 510h340l145 401h-340z" />
<glyph unicode="$" horiz-adv-x="1220" d="M31 348q2 16 17 28.5t34 12.5h41q20 0 28.5 -12t8.5 -29q-4 -43 13 -87t56 -79t103.5 -57.5t156.5 -22.5q201 0 315 73t140 196q12 61 -5 103t-65.5 76t-126 64.5t-184.5 67.5q-102 35 -173 74t-111.5 87t-52 111.5t6.5 147.5q31 145 153 242.5t327 107.5l35 141 q10 45 55 45h39q45 0 35 -45l-35 -143q100 -10 169.5 -47t111.5 -87t57.5 -108.5t5.5 -111.5q-4 -16 -16.5 -28.5t-34.5 -12.5h-41q-10 0 -24.5 8t-12.5 33q4 51 -15.5 94t-58.5 74.5t-94 49t-123 17.5q-76 0 -144.5 -14t-123 -45t-91 -77t-51.5 -110q-12 -61 2.5 -104 t57.5 -78t115.5 -65.5t175.5 -65.5q106 -37 183 -75t123 -86t60 -110.5t-4 -146.5q-39 -180 -177 -272t-360 -100l-28 -142q-10 -45 -55 -45h-39q-45 0 -35 45l31 144q-102 10 -177 42.5t-121.5 82t-65.5 111t-11 128.5z" />
<glyph unicode="%" horiz-adv-x="1556" d="M68 22.5q-5 22.5 14 40.5l1292 1332q18 18 32.5 28.5t43.5 10.5h51q29 0 34 -22.5t-13 -41.5l-1293 -1331q-18 -18 -32.5 -28.5t-42.5 -10.5h-52q-29 0 -34 22.5zM188 983q4 27 7.5 47.5t8.5 41t10 43t13 50.5q33 123 116 201t218 78t197.5 -78t42.5 -201 q-4 -29 -8.5 -51t-9.5 -42.5l-10 -41t-11 -47.5q-33 -123 -116 -199.5t-218 -76.5q-63 0 -112.5 20.5t-81 56t-44 87t-2.5 112.5zM307 930.5q2 -29.5 15.5 -54t38 -40t67.5 -15.5q45 0 82 15.5t64.5 40t45 54.5t25.5 58q8 29 13.5 48.5t8.5 38t6 38l7 45.5q6 31 5 61.5 t-13.5 54t-39 39t-71.5 15.5q-49 0 -86 -15.5t-63.5 -39t-43 -54t-24.5 -61.5q-6 -27 -11 -46t-8 -37.5t-7.5 -38t-8.5 -48.5t-2 -58.5zM801 264q4 27 7 47.5t8 41t10 43t14 50.5q33 123 115.5 201t218.5 78q135 0 197 -78t42 -201q-4 -29 -8 -51t-9 -42.5t-10.5 -41 t-11.5 -47.5q-33 -123 -115.5 -199.5t-218.5 -76.5q-63 0 -112 20.5t-81 56t-44 87t-2 112.5zM920 211.5q2 -29.5 15 -54t37.5 -40t67.5 -15.5q45 0 82 15.5t64.5 40t45 54.5t25.5 58q8 29 13.5 48.5t8.5 38t6 38l7 45.5q6 31 5 61.5t-13 54.5t-38.5 39t-71.5 15 q-49 0 -86 -15t-64 -39t-43 -54.5t-25 -61.5q-6 -27 -11 -46t-8 -37.5t-7 -38t-8 -48.5t-2 -58.5z" />
<glyph unicode="&#x26;" horiz-adv-x="1363" d="M74 377q14 72 51 129t88 104t111.5 85t126.5 73q-41 55 -67 101t-40 88t-16 83t8 86q14 68 52 127.5t92.5 103.5t123 70.5t146.5 26.5t140 -24.5t102 -68.5t55.5 -104.5t1.5 -130.5q-14 -72 -53.5 -127t-93.5 -101t-120.5 -83t-134.5 -72q47 -66 101 -133 q43 -57 96 -125.5t104 -130.5q55 70 109.5 155t85.5 196q14 45 53 45h27q20 0 30.5 -12.5t6.5 -32.5q-18 -96 -72.5 -207t-161.5 -230l164 -196q23 -29 11.5 -50.5t-42.5 -21.5h-43q-23 0 -34 6t-19 14l-133 152q-96 -84 -211 -138t-266 -54q-98 0 -177 29.5t-130.5 82.5 t-71 126t-0.5 159zM202 258q13 -51 48 -86t87 -52.5t116 -17.5q92 0 198.5 39t204.5 123q-55 68 -112.5 140.5t-104.5 134.5q-56 71 -109 141q-57 -29 -111 -61.5t-99.5 -69.5t-76 -80t-40.5 -92q-14 -68 -1 -119zM459 1065.5q0 -29.5 10 -64t33.5 -75.5t64.5 -97 q61 31 121 63t108 66.5t81 76.5t43 91q20 94 -27 149.5t-143 55.5q-45 0 -91.5 -14t-86.5 -41t-68.5 -64.5t-38.5 -85.5q-6 -31 -6 -60.5z" />
<glyph unicode="'" horiz-adv-x="423" d="M252 1079l39 334q2 18 15 29.5t32 11.5h92q18 0 27.5 -11t3.5 -30l-103 -340q-4 -16 -12 -24.5t-27 -8.5h-43q-31 0 -24 39z" />
<glyph unicode="(" horiz-adv-x="649" d="M62.5 204q17.5 181 70.5 429t106.5 428t124 298t166 174t232.5 56q18 0 29.5 -13t7.5 -32l-6 -28q-4 -18 -19.5 -32t-30.5 -14q-86 0 -153.5 -39.5t-124.5 -136t-108.5 -257t-102.5 -404.5t-69.5 -405.5t-2 -258t67.5 -136.5t137 -40q14 0 23.5 -13t5.5 -32l-6 -29 q-4 -18 -20 -31.5t-34 -13.5q-123 0 -192.5 56.5t-94 174.5t-7 299z" />
<glyph unicode=")" horiz-adv-x="649" d="M-141 -281l6 29q4 18 19.5 31.5t29.5 13.5q86 0 153.5 40t125 136.5t107.5 257t103 404.5q51 244 70 405.5t2.5 258t-68 136t-137.5 39.5q-14 0 -23 13.5t-5 32.5l6 28q4 18 19.5 31.5t33.5 13.5q123 0 192.5 -56t94 -174t6 -299t-69.5 -429q-53 -248 -106 -428 t-124 -298t-166 -174.5t-232 -56.5q-18 0 -29.5 13.5t-7.5 31.5z" />
<glyph unicode="*" horiz-adv-x="913" d="M248 1185.5q-12 16.5 2 41.5l47 84q12 23 30.5 25.5t30.5 -5.5l177 -108l6 211q0 27 16 43t41 18h80q29 0 34 -20.5t-3 -40.5l-86 -213l213 104q18 10 40.5 10t26.5 -30l10 -84q4 -29 -12 -39.5t-41 -14.5l-227 -30l127 -146q14 -16 13 -36.5t-23 -36.5l-80 -52 q-23 -14 -42.5 -6t-23.5 31l-53 196l-141 -204q-12 -16 -32 -25.5t-38 6.5l-57 54q-20 18 -10 38.5t28 34.5l188 148l-206 26q-23 4 -35 20.5z" />
<glyph unicode="+" horiz-adv-x="1273" d="M86 606l6 29q10 45 55 45h445l92 436q10 45 55 45h31q45 0 35 -45l-92 -436h446q45 0 35 -45l-6 -29q-4 -20 -18.5 -32.5t-34.5 -12.5h-447l-96 -448q-10 -45 -53 -45h-31q-20 0 -30.5 12t-6.5 33l96 448h-444q-43 0 -37 45z" />
<glyph unicode="," horiz-adv-x="485" d="M-24.5 -141.5q-6.5 12.5 1.5 30.5l93 246q10 25 23 40t38 15h92q14 0 22.5 -12t-1.5 -28l-150 -261q-12 -23 -25.5 -33t-35.5 -10h-35q-16 0 -22.5 12.5z" />
<glyph unicode="-" horiz-adv-x="999" d="M150 600l6 29q10 45 53 45h604q20 0 30.5 -12.5t6.5 -32.5l-6 -29q-10 -45 -56 -45h-604q-45 0 -34 45z" />
<glyph unicode="." horiz-adv-x="479" d="M35 45l20 98q4 20 19.5 33.5t36.5 13.5h98q20 0 30.5 -13t6.5 -34l-21 -98q-10 -45 -55 -45h-98q-20 0 -30.5 12.5t-6.5 32.5z" />
<glyph unicode="/" horiz-adv-x="952" d="M-96 -156.5q-13 15.5 6 43.5l1067 1692q4 8 17.5 19.5t33.5 11.5h35q20 0 32.5 -15.5t-5.5 -44.5l-1067 -1691q-4 -8 -17.5 -19.5t-34.5 -11.5h-34q-20 0 -33 15.5z" />
<glyph unicode="0" horiz-adv-x="1257" d="M125 545q16 92 33.5 172t40.5 172q68 287 214 426t382 139q233 0 334.5 -139t48.5 -426q-16 -92 -34 -172t-40 -172q-70 -291 -217.5 -428t-378.5 -137t-333.5 137t-49.5 428zM256 555q-43 -240 13.5 -346.5t238.5 -106.5q174 0 292 106.5t177 346.5q23 92 38 161.5 t32 162.5q43 240 -14.5 346t-237.5 106q-178 0 -295 -106.5t-174 -345.5q-23 -92 -38.5 -162t-31.5 -162z" />
<glyph unicode="1" horiz-adv-x="806" d="M141 1053.5q6 17.5 27 29.5l508 336q16 10 24.5 12.5t26.5 2.5h43q43 0 37 -45l-287 -1344q-10 -45 -53 -45h-39q-20 0 -30.5 12.5t-6.5 32.5l256 1204l-418 -274q-45 -27 -63 8l-21 37q-10 16 -4 33.5z" />
<glyph unicode="2" horiz-adv-x="1140" d="M-10 45l6 31q4 20 14 36.5t41 39.5l592 489q139 106 224 203.5t106 193.5q29 137 -22.5 215t-205.5 78q-133 0 -238.5 -81t-148.5 -214q-8 -25 -24.5 -36t-28.5 -11h-51q-41 0 -35 39q18 70 60.5 145.5t108 138t155.5 102.5t202 40q113 0 190 -35t120 -92t54 -133 t-7 -156q-27 -127 -125 -250.5t-234 -228.5l-512 -430h660q47 0 37 -47l-6 -37q-10 -45 -56 -45h-839q-20 0 -30.5 12.5t-6.5 32.5z" />
<glyph unicode="3" horiz-adv-x="1171" d="M29 330q2 18 16 28.5t33 10.5h31q16 0 31.5 -8.5t13.5 -38.5q-4 -68 22.5 -110t70.5 -66.5t98 -34t110 -9.5q78 0 150.5 18.5t132 56.5t100.5 95.5t57 133.5q33 160 -44 231.5t-237 71.5h-180q-45 0 -35 45l7 30q4 16 8 24.5t14 18.5l516 484h-600q-20 0 -30.5 12 t-6.5 33l6 30q10 47 56 48h764q47 0 36 -48l-6 -30q-2 -12 -9 -21.5t-15 -17.5l-521 -486h23q104 0 184 -30.5t130.5 -87t68.5 -135t0 -172.5q-16 -90 -58 -168t-112 -135.5t-169 -90t-230 -32.5q-115 0 -198 27.5t-135 74.5t-74.5 110.5t-18.5 137.5z" />
<glyph unicode="4" horiz-adv-x="1214" d="M25 414l8 32q4 16 7 26.5t19 27.5l822 899q31 35 82 35h84q43 0 36 -45l-190 -897h186q45 0 35 -46l-8 -32q-4 -20 -18.5 -32.5t-34.5 -12.5h-187l-69 -324q-10 -45 -54 -45h-38q-20 0 -30.5 12.5t-6.5 32.5l69 324h-676q-43 0 -36 45zM223 492h541l162 770z" />
<glyph unicode="5" horiz-adv-x="1169" d="M47 358q2 18 16.5 28.5t32.5 10.5h39q16 0 30.5 -8t10.5 -39q-6 -68 15.5 -115t60.5 -76.5t91 -43t108 -13.5q78 0 150.5 24t133 69t103.5 111.5t61 152.5q35 166 -38 251t-236 85q-78 0 -132.5 -19.5t-96.5 -42t-73.5 -42t-64.5 -19.5h-37q-18 0 -29.5 13t-5.5 32 l203 669q14 47 55 48h668q43 0 37 -45l-8 -33q-10 -45 -54 -45h-587l-144 -463q25 14 89.5 42t179.5 28q102 0 187 -30t141.5 -88.5t79 -143.5t-0.5 -197q-25 -121 -78 -210t-128.5 -149.5t-171 -90t-203.5 -29.5q-113 0 -193 31.5t-130 83.5t-69.5 121t-11.5 142z" />
<glyph unicode="6" horiz-adv-x="1185" d="M75 284q-15 87 5 179q12 59 36.5 114.5t54.5 101.5t60.5 84t53.5 62l524 568q10 12 26.5 26.5t45.5 14.5h59q18 0 27.5 -13.5t5.5 -31.5q-4 -10 -7 -14.5t-10 -12.5l-403 -436q45 18 113 18q123 0 210 -40t137 -107.5t65.5 -154.5t-3.5 -179q-20 -92 -68.5 -179 t-123 -155t-175 -108.5t-223.5 -40.5t-209 40.5t-136 108.5t-65 155zM204 307.5q13 -67.5 52 -112.5t98.5 -69t130.5 -24q72 0 146 24t137 69t111.5 112.5t66.5 155.5t4 154.5t-53 111.5t-99.5 68.5t-131.5 23.5q-72 0 -146 -23.5t-137.5 -68.5t-109.5 -111.5t-64 -154.5 t-5 -155.5z" />
<glyph unicode="7" horiz-adv-x="995" d="M129 45q2 4 3 9t5 9l791 1248h-682q-20 0 -30.5 12t-6.5 33l6 30q10 47 55 48h791q47 0 37 -48l-6 -30q-4 -25 -9.5 -37t-15.5 -29l-784 -1239q-12 -16 -26.5 -33.5t-37.5 -17.5h-57q-18 0 -27.5 13.5t-5.5 31.5z" />
<glyph unicode="8" horiz-adv-x="1259" d="M76 403q25 131 111.5 223.5t203.5 139.5q-66 45 -105.5 123t-17.5 188q18 92 68.5 163t122 119t159 71.5t179.5 23.5t169.5 -25.5t132 -73.5t79 -118t8.5 -160q-20 -111 -83 -184.5t-163 -126.5q47 -25 82 -63.5t54.5 -87t25.5 -102.5t-6 -110q-43 -207 -200 -315 t-388 -108q-111 0 -200 29.5t-146.5 85t-80.5 134t-5 174.5zM205 403q-14 -72 2 -127t56 -94t102.5 -59.5t142.5 -20.5t155.5 22.5t137 62.5t103.5 95.5t57 120.5q14 70 -0.5 125.5t-54.5 94.5t-102.5 59t-141.5 20q-78 0 -154 -20t-139.5 -59t-106.5 -94.5t-57 -125.5z M397 1077q-29 -121 38 -186.5t227 -65.5q68 2 132 19.5t118.5 49.5t92 78t52.5 105q29 121 -43 187.5t-217 66.5q-72 0 -138.5 -17.5t-120 -50t-90.5 -80t-51 -106.5z" />
<glyph unicode="9" horiz-adv-x="1163" d="M155.5 813q-14.5 84 4.5 170q18 86 64 170t119 151.5t171 109.5t221 42t207 -42t133 -109.5t62.5 -151.5t-4.5 -170q-12 -61 -35 -112.5t-50.5 -94.5t-56 -77.5t-51.5 -59.5l-551 -598q-10 -12 -26.5 -26.5t-45.5 -14.5h-63q-18 0 -27.5 13.5t-3.5 31.5q4 14 17 27 l415 450q-16 -4 -27.5 -5t-20.5 -3t-20.5 -2h-27.5q-123 0 -207 42t-133 108.5t-63.5 150.5zM285 838.5q12 -64.5 49 -109.5t95 -69.5t130 -24.5t144.5 24.5t133 69.5t105.5 109.5t62 144.5q18 80 4.5 145.5t-50 110.5t-94 69.5t-129.5 24.5t-144.5 -24.5t-134 -69.5 t-105.5 -110.5t-62 -145.5q-16 -80 -4 -144.5z" />
<glyph unicode=":" horiz-adv-x="495" d="M33 45l20 98q4 20 19.5 33.5t36.5 13.5h98q20 0 30.5 -13t6.5 -34l-21 -98q-10 -45 -55 -45h-98q-20 0 -30.5 12.5t-6.5 32.5zM186 762l21 98q4 20 19.5 33.5t35.5 13.5h98q20 0 30.5 -13t6.5 -34l-20 -98q-4 -20 -20.5 -32.5t-37.5 -12.5h-98q-45 0 -35 45z" />
<glyph unicode=";" horiz-adv-x="532" d="M-4 -141.5q-6 12.5 2 30.5l92 246q8 25 22.5 40t39.5 15h92q14 0 21 -10t3 -22q-4 -18 -16 -37l-137 -232q-14 -20 -26.5 -31.5t-35.5 -11.5h-35q-16 0 -22 12.5zM209 762l20 98q4 20 19.5 33.5t36.5 13.5h98q20 0 30.5 -13t6.5 -34l-21 -98q-4 -20 -20.5 -32.5 t-36.5 -12.5h-98q-45 0 -35 45z" />
<glyph unicode="&#x3c;" horiz-adv-x="974" d="M94 702l6 25q6 27 23.5 49.5t54.5 44.5l709 426q41 25 62.5 14.5t15.5 -38.5l-13 -52q-4 -20 -15 -33.5t-40 -29.5l-678 -408l506 -409q20 -16 26.5 -29.5t2.5 -34.5l-4 -20q-6 -35 -36 -40t-55 15l-526 426q-51 43 -39 94z" />
<glyph unicode="=" horiz-adv-x="1175" d="M102 344l7 29q10 45 55 45h768q45 0 35 -45l-6 -29q-10 -45 -54 -45h-768q-20 0 -30.5 12.5t-6.5 32.5zM211 856l6 29q10 45 55 45h768q45 0 35 -45l-6 -29q-4 -20 -18.5 -32.5t-34.5 -12.5h-768q-43 0 -37 45z" />
<glyph unicode="&#x3e;" horiz-adv-x="974" d="M57 213l13 51q4 20 15 33.5t40 30.5l678 407l-506 410q-20 16 -26.5 29.5t-2.5 33.5l4 21q6 35 36 40t54 -16l527 -426q51 -43 39 -94l-6 -24q-6 -27 -23.5 -49.5t-54.5 -45.5l-709 -426q-41 -25 -62.5 -14.5t-15.5 39.5z" />
<glyph unicode="?" horiz-adv-x="1028" d="M162 1047q20 86 68.5 159.5t117 129t154.5 87t184 31.5q113 0 190.5 -32.5t122.5 -87t56.5 -123t-8.5 -140.5t-61.5 -129t-93.5 -107.5t-107.5 -95.5t-103.5 -92t-85 -98t-49 -113l-21 -98q-10 -45 -55 -45h-35q-45 0 -35 45l21 98q25 117 95.5 201t151.5 152.5 t152.5 134t98.5 145.5q20 63 9 113.5t-45 84t-86.5 51t-111.5 17.5t-117.5 -15t-110.5 -49t-95.5 -88.5t-73.5 -131.5q-10 -29 -26.5 -37t-33.5 -8h-32q-41 0 -35 41zM319 45l17 78q4 20 19.5 33.5t35.5 13.5h78q20 0 30.5 -13.5t6.5 -33.5l-17 -78q-10 -45 -55 -45h-78 q-20 0 -30.5 12.5t-6.5 32.5z" />
<glyph unicode="@" horiz-adv-x="1689" d="M84 383q2 29 11 77t20.5 100t23 99.5t21.5 73.5q96 293 300 457t513 164q354 0 504.5 -160t101.5 -461q-6 -41 -15.5 -84t-17.5 -81t-15 -66.5t-11 -40.5q-82 -299 -328 -299q-51 0 -85 14t-56.5 34.5t-33.5 41t-16 31.5q-16 -20 -39.5 -45t-56.5 -46.5t-77 -36 t-101 -14.5q-76 0 -134 28t-93 80t-44.5 130t13.5 180q43 205 151.5 312.5t260.5 107.5q86 0 133 -33t69 -67l9 39q4 20 18 32.5t35 12.5h35q43 0 37 -45l-97 -447q-20 -98 2.5 -144t96.5 -46q45 0 76.5 21.5t53 52t33 63.5t17.5 55q6 25 23.5 95.5t29.5 154.5q16 123 4 218 t-66.5 160.5t-155.5 99.5t-261 34q-254 0 -432.5 -133t-257.5 -379q-10 -27 -20.5 -71t-22 -92t-19.5 -93t-10 -74q-25 -242 79.5 -374t371.5 -132q117 0 200.5 17.5t142 40t95.5 47t59 39.5q10 6 22.5 15t30.5 9h54q18 0 28.5 -12t5.5 -31q-2 -14 -16 -28 q-49 -45 -107.5 -84t-133 -69t-169 -46t-212.5 -16q-311 0 -460 157.5t-118 456.5zM578.5 447.5q-3.5 -54.5 11 -95.5t46.5 -66.5t91 -25.5q121 0 190.5 84t98.5 215q14 66 17 121t-10 95t-47 62.5t-95 22.5q-117 0 -187.5 -85t-99.5 -216q-12 -57 -15.5 -111.5z" />
<glyph unicode="A" horiz-adv-x="1337" d="M-71 20q-4 9 -4 18q0 12 7 25l801 1330q12 20 27.5 30.5t40.5 10.5h86q45 0 51 -41l236 -1330q2 -11 2 -19q0 -17 -8 -28q-12 -16 -31 -16h-43q-39 0 -47 43l-62 315h-723l-201 -327q-18 -31 -51 -31h-45q-27 0 -36 20zM336 481h629l-144 807z" />
<glyph unicode="B" horiz-adv-x="1345" d="M74 45l284 1341q10 47 56 48h534q96 0 166 -30t113 -81t56 -117q6 -32 7 -65q0 -36 -8 -74q-16 -74 -44 -126t-61.5 -89t-70.5 -60.5t-70 -35.5q37 -25 67 -58.5t50.5 -76.5t25.5 -97q1 -15 1 -31q0 -41 -9 -87q-16 -78 -53 -151t-98.5 -130t-150.5 -91t-207 -34h-551 q-21 0 -31 12q-8 9 -7 23q0 4 1 10zM219 123h443q72 0 135 21.5t113.5 58.5t85 89t46.5 114q8 43 8 82q0 16 -1 31q-5 52 -34.5 90t-86 58.5t-144.5 20.5h-444zM367 811h413q145 0 245.5 66.5t127.5 189.5q9 39 9 72q0 69 -40 111q-58 60 -204 61h-445z" />
<glyph unicode="C" horiz-adv-x="1331" d="M114 312q-5 40 -6 83q0 66 13 140q14 84 34.5 180t43.5 184q31 119 83 221.5t131 176t186.5 115.5t246.5 42q145 0 241.5 -40t150.5 -104t70 -142q10 -45 10 -90q0 -33 -5 -66q-6 -41 -39 -41h-47q-16 0 -31.5 9t-11.5 34q2 24 2 46q0 56 -14 100q-20 60 -65.5 98 t-112 55.5t-148.5 17.5q-188 0 -325.5 -105.5t-194.5 -336.5q-43 -170 -74 -344q-14 -78 -14 -142q0 -126 54 -196q81 -105 269 -105q82 0 154.5 15.5t135 52.5t114 97.5t90.5 152.5q10 25 22.5 34t28.5 9h47q18 0 28.5 -11.5t4.5 -29.5q-23 -72 -66 -150.5t-115.5 -143.5 t-181 -106.5t-262.5 -41.5q-139 0 -233.5 41.5t-147 115t-66.5 175.5z" />
<glyph unicode="D" horiz-adv-x="1386" d="M74 45l284 1341q10 47 56 48h415q281 0 404 -142q86 -100 86 -261q0 -69 -16 -150q-18 -92 -34 -163t-36 -163q-33 -141 -82 -245.5t-126 -173t-185.5 -102.5t-261.5 -34h-467q-21 0 -31 12q-8 9 -7 23q0 4 1 10zM219 123h352q123 0 211 24.5t150.5 76.5t103.5 136 t70 205q10 45 18.5 82t15.5 71t14 69.5t17 82.5q16 89 16 159q1 19 -1 37q-6 83 -48 137t-121 81t-202 27h-342z" />
<glyph unicode="E" horiz-adv-x="1210" d="M74 45l284 1341q10 47 56 48h798q39 0 39 -33q0 -7 -2 -15l-6 -30q-10 -45 -55 -45h-715l-113 -523h670q39 0 39 -32q0 -7 -2 -15l-6 -30q-10 -45 -55 -45h-670l-117 -543h731q39 0 39 -32q0 -7 -2 -15l-6 -31q-10 -45 -55 -45h-815q-21 0 -31 12q-8 9 -7 23q0 4 1 10z " />
<glyph unicode="F" horiz-adv-x="1173" d="M74 45l284 1341q10 47 56 48h790q39 0 39 -33q0 -7 -2 -15l-6 -30q-10 -45 -55 -45h-707l-119 -551h666q39 0 39 -32q0 -7 -2 -15l-6 -31q-4 -20 -18.5 -32.5t-37.5 -12.5h-665l-127 -592q-10 -45 -56 -45h-36q-21 0 -31 12q-8 9 -7 23q0 4 1 10z" />
<glyph unicode="G" d="M114 302q-8 43 -8 90q0 61 13 130q16 92 37.5 194.5t44.5 194.5q29 121 82 220.5t133 171t188.5 111.5t247.5 40q145 0 235.5 -41t140.5 -99.5t66 -123.5q15 -59 15 -104v-11q0 -41 -41 -41h-49q-35 0 -41 41q-6 47 -20.5 93t-49.5 82t-96.5 58.5t-159.5 22.5 q-88 0 -170 -23.5t-151.5 -75.5t-122 -134t-80.5 -197q-23 -92 -42.5 -184t-35.5 -185q-12 -72 -12 -131q0 -35 4 -65q12 -82 53 -134t108.5 -76t159.5 -24q90 0 175 26t156 78t122 134t76 192l22 105h-356q-38 0 -38 36q0 5 1 11l6 29q10 47 55 47h439q38 0 38 -31 q0 -7 -2 -16l-36 -181q-27 -123 -80.5 -224t-135 -175t-192.5 -113.5t-250 -39.5q-133 0 -226 39.5t-149.5 111.5t-73.5 171z" />
<glyph unicode="H" horiz-adv-x="1435" d="M74 45l284 1341q10 47 56 48h37q38 0 38 -32q0 -7 -2 -16l-127 -598h791l127 598q10 47 55 48h37q39 0 39 -33q0 -7 -2 -15l-285 -1341q-10 -45 -55 -45h-37q-20 0 -30.5 12.5t-6.5 32.5l133 621h-790l-133 -621q-10 -45 -56 -45h-36q-21 0 -31 12q-8 9 -7 23q0 4 1 10z " />
<glyph unicode="I" horiz-adv-x="516" d="M72 45l288 1344q4 20 18.5 32.5t35.5 12.5h39q37 0 37 -33q0 -5 -1 -12l-286 -1344q-10 -45 -53 -45h-41q-21 0 -31 12q-8 9 -7 23q0 4 1 10z" />
<glyph unicode="J" horiz-adv-x="1257" d="M39 397q4 18 14 31.5t33 13.5h45q20 0 30.5 -12t6.5 -31q-4 -31 -4 -58q0 -44 10 -78q16 -56 56 -92t99.5 -52.5t133.5 -16.5q100 0 178 31t135.5 87t94 134t57.5 170l168 787h-754q-20 0 -30.5 12t-6.5 33l8 33q4 20 18.5 32.5t35.5 12.5h837q39 0 39 -33q0 -7 -2 -15 l-182 -864q-25 -121 -71 -220t-116.5 -171t-172 -111.5t-236.5 -39.5q-92 0 -175 24.5t-143.5 75.5t-90.5 130q-20 54 -20 120q0 32 5 67z" />
<glyph unicode="K" horiz-adv-x="1150" d="M74 45l284 1341q10 47 52 48h41q38 0 38 -32q0 -7 -2 -16l-106 -512l676 529q8 6 27.5 18.5t54.5 12.5h37q31 0 39 -28q2 -8 2 -15q0 -17 -13 -27l-788 -616l581 -678q23 -27 8.5 -48.5t-36.5 -21.5h-37q-33 0 -47.5 11.5t-20.5 19.5l-532 620l-129 -606q-10 -45 -51 -45 h-41q-21 0 -31 12q-8 9 -7 23q0 4 1 10z" />
<glyph unicode="L" horiz-adv-x="1105" d="M74 45l286 1344q4 20 18.5 32.5t35.5 12.5h39q37 0 37 -33q0 -5 -1 -12l-270 -1266h707q39 0 39 -32q0 -7 -2 -15l-7 -31q-10 -45 -55 -45h-790q-21 0 -31 12q-8 9 -7 23q0 4 1 10z" />
<glyph unicode="M" horiz-adv-x="1603" d="M74 45l284 1341q10 47 58 48h53q20 0 28.5 -10.5t10.5 -16.5l272 -905l660 905q4 6 15 16.5t32 10.5h51q39 0 39 -33q0 -7 -2 -15l-285 -1341q-10 -45 -55 -45h-39q-20 0 -30.5 12.5t-6.5 32.5l230 1077l-537 -737q-14 -18 -30.5 -29.5t-41.5 -11.5h-43q-25 0 -37 10.5 t-18 30.5l-238 791l-239 -1131q-10 -45 -53 -45h-39q-23 0 -33 12q-7 9 -7 22q0 5 1 11z" />
<glyph unicode="N" horiz-adv-x="1406" d="M74 45l284 1341q10 47 54 48h41q20 0 27 -8.5t12 -16.5l514 -1169l243 1146q10 47 56 48h36q39 0 39 -33q0 -7 -2 -15l-284 -1339q-10 -47 -54 -47h-41q-20 0 -27 8t-11 17l-512 1165l-244 -1145q-10 -45 -55 -45h-39q-21 0 -31 12q-8 9 -7 23q0 4 1 10z" />
<glyph unicode="O" d="M116 292q-8 45 -9 97q0 71 16 156q16 92 33.5 172t40.5 172q68 287 235.5 426t411.5 139q119 0 212 -35t152 -105q58 -70 78 -176q8 -44 8 -96q0 -70 -16 -153q-16 -92 -33.5 -172t-40.5 -172q-70 -291 -238.5 -428t-408.5 -137q-121 0 -213 33.5t-150 103t-78 175.5z M254 555q-15 -85 -16 -154q0 -125 51 -193q78 -106 268 -106q92 0 173 26t148.5 81t119 140t79.5 206q23 92 38 161.5t32 162.5q15 85 15 153q0 125 -51 193q-79 106 -267 106q-92 0 -174 -25.5t-149.5 -81t-118 -141.5t-78.5 -204q-23 -92 -38.5 -162t-31.5 -162z" />
<glyph unicode="P" horiz-adv-x="1288" d="M74 45l284 1341q10 47 56 48h487q227 0 331 -106q73 -74 74 -200q0 -54 -14 -118q-45 -211 -186 -317.5t-363 -106.5h-426l-114 -541q-10 -45 -56 -45h-36q-21 0 -31 12q-8 9 -7 23q0 4 1 10zM344 709h389q168 0 284 76.5t146 224.5q13 67 13 118v11q-2 55 -31 94 t-91.5 58.5t-166.5 19.5h-414z" />
<glyph unicode="Q" d="M116 292q-9 45 -9 97q0 71 16 156q16 92 33.5 172t40.5 172q68 287 235.5 426t411.5 139q119 0 212 -35t151.5 -105.5t78.5 -175.5q8 -45 8 -96q0 -70 -16 -153q-16 -92 -33.5 -172t-40.5 -172q-70 -287 -239 -428l94 -185q12 -23 1 -44t-36 -21h-49q-23 0 -37 14.5 t-25 32.5l-65 127q-129 -61 -291 -61q-121 0 -213 33.5t-150.5 103t-77.5 175.5zM254 555q-15 -85 -15 -154q0 -124 50 -193q78 -106 268 -106q92 0 173 26t148.5 81t119 140t79.5 206q23 92 38 161.5t32 162.5q15 85 15 153q0 124 -51 193q-79 106 -267 106 q-92 0 -174 -25.5t-149.5 -81t-118 -141.5t-78.5 -204q-23 -92 -38.5 -162t-31.5 -162z" />
<glyph unicode="R" horiz-adv-x="1312" d="M74 45l284 1341q10 47 56 48h477q104 0 185 -26t132.5 -77t69.5 -129q8 -35 8 -75q0 -49 -12 -107q-35 -166 -132.5 -261t-258.5 -134l209 -557q12 -31 -0.5 -49.5t-34.5 -18.5h-45q-14 0 -27.5 7t-19.5 24l-220 575h-423l-119 -561q-10 -45 -56 -45h-36q-21 0 -31 12 q-8 9 -7 23q0 4 1 10zM348 729h357q82 0 154.5 18.5t131 54.5t98 90t56.5 128q11 51 11 93q0 79 -40 126q-62 72 -250 72h-393z" />
<glyph unicode="S" horiz-adv-x="1232" d="M41 348q2 16 13.5 28.5t29.5 12.5h49q20 0 28.5 -12t8.5 -29q-1 -8 -1 -16q1 -35 15 -71q18 -44 56.5 -79t103 -57.5t156.5 -22.5q201 0 314.5 73t139.5 196q5 25 5 47q0 31 -10 56q-17 42 -65 76t-126 64.5t-185 67.5q-102 35 -172.5 74t-111.5 87q-41 47 -53 111 q-4 24 -4 51q0 44 12 97q35 156 169 254t363 98q121 0 206 -34t136 -86q52 -52 70 -116q12 -41 12 -80q0 -21 -4 -42q-4 -16 -12 -28.5t-31 -12.5h-49q-10 0 -24.5 8t-12.5 33q1 9 1 17q0 41 -16 77q-20 43 -59 74.5t-94 49t-123 17.5q-76 0 -144.5 -14t-122.5 -45t-91 -77 t-51 -110q-6 -28 -6 -52q0 -28 8 -52q14 -43 57 -78t115.5 -65.5t175.5 -65.5q106 -37 183 -75t123 -86q47 -49 61 -111q6 -27 6 -58q0 -41 -11 -88q-41 -186 -190.5 -280t-388.5 -94q-125 0 -215 30.5t-147 80.5q-58 51 -82 117q-18 50 -17 103q0 18 2 37z" />
<glyph unicode="T" horiz-adv-x="1128" d="M207 1356l6 30q10 47 55 48h938q39 0 39 -33q0 -7 -2 -15l-6 -30q-10 -45 -55 -45h-404l-270 -1266q-10 -45 -55 -45h-37q-20 0 -30.5 12.5t-6.5 32.5l270 1266h-405q-20 0 -30 12q-8 9 -8 22q0 5 1 11z" />
<glyph unicode="U" horiz-adv-x="1415" d="M170 555l176 831q10 47 55 48h37q39 0 39 -33q0 -7 -2 -15l-178 -837q-21 -99 -21 -175q0 -102 38 -164q66 -108 272 -108q199 0 328.5 107.5t179.5 339.5l178 837q10 47 57 48h37q37 0 37 -32q0 -7 -2 -16l-176 -831q-63 -299 -218 -437t-421 -138t-373 138 q-67 86 -67 236q0 89 24 201z" />
<glyph unicode="V" horiz-adv-x="1308" d="M240 1384q-1 6 -1 12q0 16 9 26q12 12 33 12h45q20 0 28 -9.5t11 -21.5l182 -1253l715 1253q4 10 13 20.5t30 10.5h61q25 0 31 -22q2 -7 2 -14q0 -15 -8 -30l-754 -1319q-16 -25 -33.5 -37t-46.5 -12h-63q-53 0 -60 49z" />
<glyph unicode="W" horiz-adv-x="1589" d="M252 49v1344q0 16 11 28.5t32 12.5h39q20 0 30.5 -12.5t10.5 -28.5v-1135l424 811q10 18 27.5 32.5t45.5 14.5h43q29 0 40.5 -14.5t13.5 -32.5l86 -831l487 1165q12 31 51 31h45q29 0 34 -16q2 -5 2 -11q0 -12 -7 -27l-557 -1331q-23 -49 -68 -49h-43q-51 0 -53 49 l-88 860l-448 -860q-29 -49 -74 -49h-37q-47 0 -47 49z" />
<glyph unicode="X" horiz-adv-x="1249" d="M-58 24q-5 9 -4 18q0 14 11 26l624 669l-319 633q-12 23 0 43.5t35 20.5h33q33 0 43 -10.5t14 -20.5l291 -574l524 574q10 10 22.5 20.5t47.5 10.5h34q26 0 38 -22q5 -9 4 -18q0 -14 -11 -28l-600 -655l334 -652q10 -23 -2 -41t-35 -18h-33q-31 0 -42 10t-15 21l-301 587 l-551 -587q-10 -10 -22.5 -20.5t-45.5 -10.5h-36q-26 0 -38 24z" />
<glyph unicode="Y" horiz-adv-x="1288" d="M238 1366q-4 10 -4 19q0 13 8 27q14 22 43 22h34q29 0 41 -31l285 -717l588 717q25 31 53 31h64q35 0 36 -24q0 -22 -18 -44l-674 -819l-108 -502q-10 -45 -56 -45h-34q-20 0 -30.5 12.5t-6.5 32.5l104 502z" />
<glyph unicode="Z" horiz-adv-x="1175" d="M-37 47l10 41q6 31 20.5 48.5t24.5 27.5l1037 1147h-758q-20 0 -30.5 12t-6.5 33l6 30q10 47 56 48h882q39 0 39 -33q0 -7 -2 -15l-8 -40q-4 -27 -17.5 -43.5t-25.5 -30.5l-1038 -1149h794q39 0 39 -32q0 -7 -2 -15l-6 -31q-10 -45 -55 -45h-922q-20 0 -30 12q-8 9 -8 24 q0 5 1 11z" />
<glyph unicode="[" horiz-adv-x="616" d="M-29 -281l389 1825q10 45 54 45h311q20 0 30.5 -12t6.5 -33l-6 -28q-10 -45 -56 -46h-229l-356 -1677h229q45 0 35 -45l-6 -29q-4 -20 -18.5 -32.5t-35.5 -12.5h-311q-43 0 -37 45z" />
<glyph unicode="\" horiz-adv-x="944" d="M258 1565q-4 20 6 32.5t31 12.5h35q25 0 37 -12.5t16 -32.5l348 -1692q4 -20 -6 -32.5t-31 -12.5h-35q-25 0 -37 12.5t-16 32.5z" />
<glyph unicode="]" horiz-adv-x="614" d="M-135 -281l6 29q10 45 55 45h230l356 1677h-229q-45 0 -35 46l6 28q10 45 53 45h309q20 0 30.5 -12t6.5 -33l-389 -1825q-4 -20 -18.5 -32.5t-34.5 -12.5h-309q-41 0 -37 45z" />
<glyph unicode="^" horiz-adv-x="849" d="M271.5 1195q-3.5 17 19.5 34l229 186q27 23 41 26t31 3h20q16 0 29.5 -3t30.5 -26l149 -184q16 -23 6 -38t-28 -15h-41q-20 0 -35 14l-133 123l-187 -123q-10 -6 -18 -10t-20 -4h-70q-20 0 -23.5 17z" />
<glyph unicode="_" horiz-adv-x="1533" d="M12 -12l6 28q10 45 56 45h1177q45 0 35 -45l-6 -28q-10 -45 -53 -45h-1178q-20 0 -30.5 12t-6.5 33z" />
<glyph unicode="`" horiz-adv-x="372" d="M68 1460q14 25 38 25h89q31 0 43 -8.5t24 -28.5l103 -166q12 -20 2.5 -41.5t-35.5 -21.5h-21q-20 0 -32.5 3t-26.5 17l-178 176q-20 20 -6 45z" />
<glyph unicode="a" horiz-adv-x="1165" d="M77 297q-2 29 -2 59q0 59 9 119q4 31 10 57.5t15 57.5q23 88 61.5 177t101 159.5t151.5 114.5t212 44q135 0 202.5 -47t102.5 -114l21 96q10 45 53 45h35q21 -1 31 -13q7 -8 7 -20q0 -6 -2 -12l-206 -975q-10 -45 -54 -45h-34q-20 0 -30.5 12.5t-6.5 32.5l20 96 q-33 -35 -65.5 -64.5t-73.5 -51t-92 -33.5t-119 -12q-119 0 -192.5 44t-110.5 114.5t-44 158.5zM200 332q1 -68 22.5 -120t69.5 -83t132 -31q88 0 158.5 33t123 85t86.5 116t50 127q8 31 18 80t17 79q8 43 8 87q0 18 -1 37q-5 63 -32 112t-79 81t-138 32q-84 0 -148.5 -32 t-113.5 -84t-83 -119.5t-54 -141.5q-10 -31 -15.5 -57.5t-9.5 -57.5q-11 -68 -11 -132v-11z" />
<glyph unicode="b" horiz-adv-x="1187" d="M49 45l289 1364q10 45 55 45h35q37 0 37 -30q0 -7 -2 -15l-103 -485q63 68 147.5 114.5t211.5 46.5q119 0 194.5 -42t115.5 -110.5t49 -155.5q4 -34 3 -69q0 -54 -8 -108q-4 -31 -12 -67.5t-17 -67.5q-23 -90 -63.5 -177t-105 -156t-155.5 -110.5t-210 -41.5 q-129 0 -205 46t-110 115l-21 -96q-10 -45 -55 -45h-35q-37 0 -37 30q0 7 2 15zM255 332q5 -64 32.5 -116t81 -85t141.5 -33t154.5 32t116.5 84t84 119.5t57 141.5q10 31 15 57.5t9 57.5q11 68 11 131v11q-1 68 -23.5 119.5t-73.5 83.5t-141 32q-86 0 -156.5 -32t-126 -81 t-91.5 -111.5t-50 -124.5q-8 -31 -18.5 -79.5t-14.5 -79.5q-8 -44 -8 -89q0 -19 1 -38z" />
<glyph unicode="c" horiz-adv-x="1095" d="M78 253q-8 40 -7 84q0 53 11 114q6 31 16.5 82t18.5 81q53 221 188 346t352 125q113 0 187 -31.5t116 -80.5t56 -109q10 -42 10 -81q0 -16 -2 -33q-4 -45 -43 -45h-39q-23 0 -33 9t-8 34v13q1 107 -61 155q-66 51 -183 51q-70 0 -135 -20.5t-119.5 -64.5t-96 -113 t-66.5 -165q-8 -31 -16.5 -71.5t-14.5 -71.5q-12 -67 -12 -120q-1 -102 43 -158q66 -85 206 -85q109 0 204 46t155 163q14 27 23.5 35t31.5 8h37q18 0 27.5 -12t3.5 -33q-16 -55 -53 -112.5t-95.5 -105.5t-141.5 -77.5t-192 -29.5q-100 0 -176.5 32.5t-125 93t-66.5 147.5z " />
<glyph unicode="d" horiz-adv-x="1185" d="M76 297q-3 32 -3 64q0 56 9 114q4 31 10 57.5t14 57.5q23 88 64 177t104.5 159.5t154.5 114.5t214 44q135 0 208 -47t107 -114l105 485q10 45 53 45h35q21 0 31 -12q8 -9 7 -22q0 -5 -1 -11l-291 -1364q-10 -45 -53 -45h-35q-20 0 -30.5 12.5t-6.5 32.5l21 96 q-33 -35 -68 -64.5t-78 -51t-95 -33.5t-120 -12q-119 0 -193.5 44t-114.5 114.5t-48 158.5zM199 332q2 -68 26.5 -120t73.5 -83t133 -31q88 0 160 33t126 85t90 116t52 127q8 31 18.5 80t16.5 79q8 41 8 82q0 21 -2 42q-6 63 -34.5 112t-83 81t-140.5 32q-84 0 -150.5 -32 t-116.5 -84t-86 -119.5t-57 -141.5q-10 -31 -15 -57.5t-9 -57.5q-10 -63 -10 -123v-20z" />
<glyph unicode="e" horiz-adv-x="1114" d="M78 451q4 31 15.5 81.5t19.5 81.5q27 104 78 191.5t121.5 149t156.5 96t182 34.5q221 0 311 -141q59 -91 59 -227q0 -73 -17 -160l-7 -31q-4 -20 -20 -32.5t-37 -12.5h-729q-12 -66 -13 -128q0 -9 1 -17q2 -70 26.5 -122t76.5 -84t138 -32q80 0 137.5 16.5t95.5 38 t60.5 44l34.5 34.5q23 27 34 32t34 5h32q18 0 29.5 -11t5.5 -30q-8 -29 -38.5 -71.5t-88 -81.5t-140.5 -66.5t-196 -27.5q-92 0 -166.5 34.5t-123 96t-68.5 148.5q-11 48 -12 100q0 44 8 92zM236 596h651q15 64 15 121q0 13 -1 25q-4 68 -32.5 117.5t-83 78.5t-134.5 29 q-78 0 -145.5 -29t-122.5 -80t-93 -118.5t-54 -143.5z" />
<glyph unicode="f" horiz-adv-x="729" d="M115 991l6 29q10 45 55 45h182l25 117q14 68 44 129t75 106t107.5 72t142.5 27h118q37 0 37 -31q0 -7 -2 -15l-6 -28q-10 -45 -55 -45h-92q-109 0 -166.5 -57.5t-79.5 -168.5l-23 -106h271q36 0 36 -29q0 -7 -2 -16l-6 -29q-4 -20 -18 -32.5t-35 -12.5h-270l-193 -901 q-10 -45 -53 -45h-35q-20 0 -30.5 12.5t-6.5 32.5l193 901h-182q-38 0 -38 35q0 4 1 10z" />
<glyph unicode="g" horiz-adv-x="1185" d="M-31 -150q4 20 15.5 34t29.5 14h39q16 0 26.5 -7.5t12.5 -35.5q0 -25 9.5 -56.5t36 -61.5t74.5 -49.5t128 -19.5q72 0 139.5 15.5t125 53.5t98 101.5t61.5 161.5l29 141q-66 -70 -149 -115.5t-210 -45.5q-123 0 -198.5 44t-115.5 114.5t-47 158.5q-2 27 -2 54 q0 61 11 124q4 31 10 57.5t14 57.5q25 88 66 177t104.5 159.5t153.5 114.5t213 44q127 0 204 -47t111 -114l21 94q4 20 19.5 33.5t35.5 13.5h33q20 0 31 -13q7 -10 7 -23q0 -5 -1 -11l-211 -998q-20 -98 -54 -184t-95.5 -149.5t-159 -100.5t-244.5 -37q-127 0 -203 36 t-114.5 84t-48.5 99q-7 33 -7 57q0 14 2 25zM196 332q1 -68 24.5 -120t74.5 -83t139 -31q86 0 158 33t126 85t90 115.5t52 127.5q8 31 17.5 73.5t13.5 73.5q7 45 7 91q0 18 -1 36q-4 64 -31.5 116t-81 85t-141.5 33q-84 0 -151.5 -32t-118.5 -84t-86 -119.5t-56 -141.5 q-8 -31 -14 -57.5t-10 -57.5q-11 -68 -11 -132v-11z" />
<glyph unicode="h" horiz-adv-x="1210" d="M47 45l291 1364q10 45 53 45h35q20 0 30.5 -12t6.5 -33l-105 -485q63 72 145.5 116.5t211.5 44.5q109 0 183.5 -34.5t117.5 -96t53 -145.5q3 -28 4 -58q0 -59 -14 -124l-125 -582q-10 -45 -53 -45h-35q-20 0 -30.5 12.5t-6.5 32.5l121 571q15 69 15 125q-1 79 -29 133 q-48 94 -201 93q-74 0 -141.5 -23.5t-125 -69t-97.5 -111t-58 -147.5l-121 -571q-10 -45 -53 -45h-35q-20 0 -30 12q-8 9 -8 23q0 4 1 10z" />
<glyph unicode="i" horiz-adv-x="458" d="M47 45l207 975q10 45 55 45h35q37 0 37 -30q0 -7 -2 -15l-207 -975q-10 -45 -53 -45h-35q-20 0 -30 12q-8 9 -8 23q0 4 1 10zM297 1329l18 78q4 20 18.5 33.5t35.5 13.5h77q20 0 32 -14q9 -10 8 -23q0 -5 -1 -10l-18 -78q-4 -20 -19.5 -32.5t-35.5 -12.5h-78 q-38 0 -38 35q0 4 1 10z" />
<glyph unicode="j" horiz-adv-x="479" d="M-252 -344l6 29q10 45 53 45h19q100 0 150.5 65.5t70.5 159.5l225 1065q10 45 56 45h34q37 0 37 -30q0 -7 -2 -15l-225 -1065q-16 -72 -41 -135.5t-66.5 -109.5t-106 -72.5t-157.5 -26.5h-18q-37 0 -37 30q0 7 2 15zM315 1329l19 78q4 20 18.5 33.5t34.5 13.5h78 q20 0 31 -14q9 -10 9 -23q0 -5 -1 -10l-19 -78q-4 -20 -19 -32.5t-36 -12.5h-78q-38 0 -38 35q0 4 1 10z" />
<glyph unicode="k" horiz-adv-x="993" d="M47 45l291 1364q10 45 53 45h35q20 0 30.5 -12t6.5 -33l-152 -711l510 332q33 20 48.5 27.5t45.5 7.5h56q29 -1 33 -29v-5q0 -26 -35 -48l-602 -393l471 -520q20 -23 9 -46.5t-38 -23.5h-33q-33 0 -45 10t-22 21l-437 477l-100 -463q-10 -45 -53 -45h-35q-20 0 -30 12 q-8 9 -8 23q0 4 1 10z" />
<glyph unicode="l" horiz-adv-x="460" d="M47 45l291 1364q10 45 53 45h35q20 0 30 -12q8 -9 8 -22q0 -5 -1 -11l-291 -1364q-10 -45 -53 -45h-35q-20 0 -30 12q-8 9 -8 23q0 4 1 10z" />
<glyph unicode="m" horiz-adv-x="1800" d="M47 45l207 975q10 45 55 45h35q37 0 37 -30q0 -7 -2 -15l-14 -72q66 66 132 101.5t169 35.5q117 0 197.5 -49t109.5 -143q66 88 158 140t210 52q82 0 148.5 -28.5t111 -83.5t58.5 -138q5 -32 5 -69q0 -57 -13 -125l-127 -596q-10 -45 -54 -45h-34q-20 0 -30.5 12.5 t-6.5 32.5l123 576q16 80 16 139q0 16 -1 28q-5 66 -30.5 106t-69.5 56.5t-100 16.5q-47 0 -102 -16.5t-106.5 -56.5t-94.5 -106.5t-63 -166.5l-123 -576q-10 -45 -53 -45h-35q-20 0 -30.5 12.5t-6.5 32.5l123 576q15 77 15 134q0 17 -1 33q-6 66 -33.5 106t-70.5 56.5 t-94 16.5q-47 0 -102.5 -16.5t-107 -56.5t-94.5 -105.5t-63 -165.5l-123 -578q-10 -45 -53 -45h-35q-20 0 -30 12q-8 9 -8 23q0 4 1 10z" />
<glyph unicode="n" horiz-adv-x="1208" d="M47 45l207 975q10 45 55 45h35q37 0 37 -30q0 -7 -2 -15l-21 -96q63 72 153.5 116.5t207.5 44.5t191.5 -34.5t114.5 -96t46 -145.5q1 -19 1 -40q0 -67 -15 -142l-125 -582q-10 -45 -53 -45h-35q-20 0 -30.5 12.5t-6.5 32.5l121 571q18 86 19 152v6q1 62 -21 104 q-22 44 -72.5 66.5t-134.5 22.5q-162 0 -276.5 -92.5t-149.5 -258.5l-121 -571q-10 -45 -53 -45h-35q-20 0 -30 12q-8 9 -8 23q0 4 1 10z" />
<glyph unicode="o" horiz-adv-x="1138" d="M76 262q-7 39 -6 80q0 50 10 104q2 14 6 38t9 48.5t11.5 47t10.5 38.5q25 98 69.5 184.5t112.5 149t157.5 98t200.5 35.5t189 -35.5t124 -98t60 -148.5q6 -38 6 -78q0 -52 -10 -107q-4 -16 -8 -38.5t-9 -47t-10.5 -48t-9.5 -38.5q-25 -98 -71 -184t-113.5 -148.5 t-157.5 -98t-201 -35.5q-106 0 -184 35.5t-124 98t-62 148.5zM207 457q-10 -59 -10 -108q1 -97 41 -159q62 -92 208 -92q72 0 138.5 23.5t122 69t96.5 112t63 154.5q8 31 17.5 75.5t15.5 75.5q10 58 10 107q1 99 -41 161q-62 92 -211 91q-72 0 -138 -23.5t-121.5 -69 t-96.5 -112t-61 -154.5q-10 -31 -19.5 -76t-13.5 -75z" />
<glyph unicode="p" horiz-adv-x="1185" d="M-35 -344l291 1364q10 45 53 45h35q20 0 30.5 -12.5t6.5 -32.5l-21 -96q33 35 68 64.5t78 51t95 33.5t120 12q119 0 193.5 -44t114.5 -114.5t48 -158.5q3 -32 3 -64q0 -57 -9 -114q-4 -31 -10 -57.5t-14 -57.5q-23 -90 -64 -178t-104.5 -158.5t-154.5 -114.5t-214 -44 q-135 0 -208 47t-107 114l-105 -485q-10 -45 -53 -45h-35q-20 0 -30 12q-8 9 -8 22q0 5 1 11zM252 322q6 -62 34.5 -111t83 -81t140.5 -32q84 0 150.5 32t116.5 84t85 119.5t58 141.5q10 31 15 57.5t9 57.5q10 63 10 122v20q-2 67 -26.5 119t-73.5 84t-133 32 q-88 0 -160 -33t-126 -85t-91 -116t-51 -127q-8 -31 -18.5 -80t-16.5 -80q-8 -41 -8 -82q0 -21 2 -42z" />
<glyph unicode="q" horiz-adv-x="1187" d="M77 288q-4 34 -4 69q0 53 9 108q4 31 12 67.5t17 67.5q23 90 63.5 177t105 155.5t154.5 110.5t211 42q129 0 205 -46t111 -115l20 96q10 45 55 45h35q37 0 37 -30q0 -7 -2 -15l-289 -1364q-10 -45 -55 -45h-35q-37 0 -37 30q0 7 2 15l103 485q-33 -35 -69 -63.5t-79 -51 t-95.5 -34.5t-115.5 -12q-121 0 -195.5 41.5t-114.5 110.5t-49 156zM198 332q1 -68 23.5 -120t73.5 -83t141 -31q86 0 157 32t126 81t91 111.5t50 123.5q8 31 18.5 80t14.5 80q8 44 8 89q0 19 -1 38q-5 64 -32.5 116t-81 85t-141.5 33q-86 0 -152.5 -32t-116.5 -84 t-86 -119.5t-57 -141.5q-10 -31 -15 -57.5t-9 -57.5q-11 -68 -11 -132v-11z" />
<glyph unicode="r" horiz-adv-x="716" d="M47 45l207 973q4 20 19.5 33.5t35.5 13.5h33q20 0 30.5 -13.5t6.5 -33.5l-21 -94q47 72 126 106.5t184 34.5h75q37 0 37 -30q0 -7 -2 -15l-6 -29q-4 -20 -18.5 -32.5t-34.5 -12.5h-88q-123 0 -210 -71.5t-114 -194.5l-135 -635q-10 -45 -55 -45h-33q-20 0 -30 12 q-8 9 -8 23q0 4 1 10z" />
<glyph unicode="s" horiz-adv-x="1003" d="M10 215q4 23 21.5 34t31.5 11h29q12 0 21.5 -4t19.5 -23q27 -53 83 -94t165 -41q61 0 117.5 12.5t100.5 35t75 57.5t41 82q3 16 3 30q0 19 -6 37q-12 28 -46.5 52t-96 45.5t-153.5 44.5q-86 20 -139.5 53t-80.5 73q-28 38 -34 84q-2 17 -2 35q0 29 6 58q12 53 41 105 t79 93t122.5 65.5t173.5 24.5q100 0 166.5 -26.5t106.5 -63.5q41 -37 55 -75q13 -33 12 -54v-6q-4 -20 -20.5 -32.5t-35.5 -12.5h-28q-29 0 -39 27q-10 25 -25.5 47t-40 39.5t-61.5 28t-90 10.5q-123 0 -201 -50.5t-94 -128.5q-6 -31 0 -58.5t33.5 -52t84 -48t148.5 -45.5 q94 -23 154.5 -53.5t93.5 -70.5t41 -87q3 -19 3 -39q0 -30 -7 -62q-12 -61 -45 -114.5t-88.5 -93t-136.5 -62t-187 -22.5q-109 0 -180.5 28.5t-115.5 67.5q-43 39 -61 79q-14 33 -15 52q0 4 1 8z" />
<glyph unicode="t" horiz-adv-x="718" d="M111 991l6 29q10 45 55 45h160l74 344q10 45 53 45h35q20 0 30.5 -12t5.5 -33l-73 -344h254q36 0 36 -29q0 -7 -2 -16l-6 -29q-4 -20 -18 -32.5t-35 -12.5h-254l-127 -596q-12 -55 -19 -98q-3 -20 -3 -37q0 -19 4 -35q8 -30 35.5 -45.5t85.5 -15.5h122q37 0 37 -30 q0 -7 -2 -15l-6 -29q-10 -45 -53 -45h-100q-100 0 -154 26q-52 27 -74 73q-19 40 -19 93v16q3 62 19 134l129 604h-160q-37 0 -37 33q0 6 1 12z" />
<glyph unicode="u" horiz-adv-x="1200" d="M106 256q-1 17 -2 35q0 69 17 147l123 582q10 45 55 45h35q37 0 37 -30q0 -7 -2 -15l-121 -571q-18 -86 -20 -152q0 -7 -1 -13q1 -57 21 -97q22 -44 72.5 -66.5t134.5 -22.5q76 0 144.5 23.5t123.5 69t94 111t57 147.5l121 571q10 45 56 45h34q37 0 37 -30q0 -7 -2 -15 l-207 -975q-10 -45 -53 -45h-35q-20 0 -30.5 12.5t-6.5 32.5l21 96q-35 -37 -68.5 -66.5t-73.5 -51t-91.5 -32.5t-120.5 -11q-117 0 -192 34.5t-113 96t-44 145.5z" />
<glyph unicode="v" horiz-adv-x="1091" d="M160 1016q-1 6 -1 12q0 18 10 26q13 11 30 11h39q18 0 30.5 -9t16.5 -36l155 -870l535 884q4 8 17.5 19.5t33.5 11.5h49q17 1 29 -17q4 -7 5 -16q0 -13 -11 -31l-578 -950q-14 -23 -31.5 -37t-50.5 -14h-43q-33 0 -45 14.5t-16 36.5z" />
<glyph unicode="w" horiz-adv-x="1609" d="M166 1018v5q0 15 9 27q11 14 38 15h35q37 0 41 -31l76 -852l442 842q6 12 19.5 26.5t39.5 14.5h49q27 0 35 -14.5t11 -26.5l92 -842l434 852q4 8 14 19.5t31 11.5h49q29 -1 33 -17q1 -5 1 -9q0 -13 -7 -29l-490 -959q-14 -29 -30.5 -40t-45.5 -11h-38q-53 0 -60 51 l-90 807l-424 -807q-27 -51 -80 -51h-41q-29 0 -40 12.5t-15 38.5z" />
<glyph unicode="x" horiz-adv-x="1058" d="M-44 24q-4 9 -4 17q0 15 13 29l471 475l-258 456q-10 18 -3 41t36 23h39q20 0 31.5 -10.5t17.5 -20.5l229 -407l406 407q10 10 23.5 20.5t43.5 10.5h33h3q21 -1 34 -23q5 -9 5 -18q0 -16 -15 -31l-469 -475l254 -455q12 -23 5 -43t-36 -20h-39q-20 0 -32.5 10t-18.5 21 l-227 403l-400 -403q-10 -10 -23.5 -20.5t-43.5 -10.5h-37q-27 0 -38 24z" />
<glyph unicode="y" horiz-adv-x="1093" d="M98 -370q-2 6 -2 13q0 15 13 35l251 394l-200 940q-4 20 5 36.5t38 16.5h37q37 0 43 -31l174 -813l526 813q8 12 20.5 21.5t32.5 9.5h49q16 0 31 -15q6 -7 6 -17q0 -11 -10 -27l-883 -1364q-8 -12 -20 -21.5t-33 -9.5h-47q-23 0 -31 19z" />
<glyph unicode="z" horiz-adv-x="995" d="M-37 45l8 35q4 23 19 39l796 827h-565q-38 0 -38 35q0 5 1 10l6 29q10 45 56 45h688q37 0 37 -30q0 -7 -2 -15l-6 -35q-2 -20 -21 -39l-795 -827h627q37 0 37 -30q0 -7 -2 -15l-6 -29q-10 -45 -53 -45h-750q-20 0 -30 12q-8 9 -8 23q0 4 1 10z" />
<glyph unicode="{" horiz-adv-x="700" d="M78 621l4 24q6 25 20.5 41t44.5 35q37 20 65 43.5t50.5 54.5t39.5 74t30 104q31 141 62.5 251t81.5 185.5t127 115.5t198 40h10q20 0 30.5 -12t6.5 -33l-6 -28q-10 -45 -56 -46h-10q-80 0 -129 -29.5t-83 -92t-58.5 -159.5t-52.5 -235q-27 -121 -81.5 -197.5 t-146.5 -123.5q72 -47 90.5 -124t-4.5 -198q-27 -139 -46 -236.5t-14 -161t43 -92t126 -28.5h10q45 0 35 -45l-6 -29q-4 -20 -18.5 -32.5t-34.5 -12.5h-11q-117 0 -177 40t-79.5 117t-6.5 186.5t44 250.5q12 61 14.5 104.5t-7 74t-28 54t-44.5 44.5q-23 18 -30 34.5t-3 41.5 z" />
<glyph unicode="|" horiz-adv-x="450" d="M-47 -381l461 2171q10 45 55 45h35q45 0 35 -45l-461 -2171q-10 -45 -55 -45h-35q-45 0 -35 45z" />
<glyph unicode="}" horiz-adv-x="700" d="M-135 -281l6 29q10 45 55 45h11q80 0 129 30t82.5 92t58 159.5t53.5 234.5q27 121 81 198t146 124q-72 47 -90.5 123.5t4.5 197.5q27 137 46.5 235.5t14.5 162t-43 92t-126 28.5h-10q-45 0 -35 46l6 28q4 20 18.5 32.5t34.5 12.5h10q117 0 177.5 -40t80 -116.5t6 -186 t-43.5 -251.5q-12 -61 -14.5 -104t7 -74t27.5 -54.5t45 -43.5q23 -18 30 -34.5t3 -41.5l-4 -25q-6 -25 -20.5 -41t-45.5 -34q-37 -20 -64.5 -44t-50 -54.5t-40 -73.5t-29.5 -105q-31 -141 -62.5 -250.5t-82 -185.5t-127 -116t-197.5 -40h-10q-20 0 -30.5 12.5t-6.5 32.5z " />
<glyph unicode="~" horiz-adv-x="1155" d="M145 551l11 47q4 18 26.5 38.5t57 37t77.5 27t86 10.5q63 0 110.5 -11.5t87.5 -24.5t82 -24.5t97 -11.5q39 0 71 11.5t56.5 24.5t43 24.5t32.5 11.5q35 0 29 -35l-11 -47q-4 -18 -27.5 -39t-58 -37t-77.5 -26.5t-86 -10.5q-61 0 -106.5 11.5t-85.5 24.5t-83 24.5 t-100 11.5q-41 0 -72 -11.5t-55.5 -24.5t-44 -24.5t-33.5 -11.5q-33 0 -27 35z" />
<glyph unicode="&#xa1;" horiz-adv-x="444" d="M-39 -324l223 1051q10 45 56 45h34q45 0 35 -45l-223 -1051q-4 -20 -18.5 -32.5t-34.5 -12.5h-35q-43 0 -37 45zM209 942l16 78q10 45 56 45h77q20 0 30.5 -12.5t6.5 -32.5l-16 -78q-4 -20 -19.5 -33.5t-35.5 -13.5h-78q-20 0 -30.5 13.5t-6.5 33.5z" />
<glyph unicode="&#xa2;" horiz-adv-x="1110" d="M90 451q6 31 16.5 82t18.5 81q49 203 167 326t306 141l27 123q10 45 53 45h35q20 0 30.5 -12t6.5 -33l-27 -121q94 -8 156.5 -41.5t98.5 -82t48 -103.5t6 -106q-4 -45 -43 -45h-39q-23 0 -33 9t-8 34q4 117 -61.5 168t-181.5 51q-70 0 -135.5 -20.5t-120 -64.5 t-96.5 -113t-66 -165q-8 -31 -16.5 -71.5t-14.5 -71.5q-35 -193 31.5 -278t206.5 -85q109 0 204 46t154 163q14 27 23.5 35t31.5 8h37q18 0 27.5 -12t3.5 -33q-14 -53 -48 -108.5t-89.5 -101.5t-133 -77.5t-178.5 -35.5l-28 -142q-10 -45 -53 -45h-35q-20 0 -30.5 12.5 t-6.5 32.5l31 148q-160 27 -235 147.5t-40 315.5z" />
<glyph unicode="&#xa3;" horiz-adv-x="1347" d="M-10 39q39 147 122 221t185 90q6 70 13 140.5t14 154.5h-162q-45 0 -35 45l8 33q4 20 18.5 32.5t34.5 12.5h144q6 39 12 80t16 86q23 102 68 196.5t113.5 167t163 115.5t215.5 43q115 0 195.5 -37t127.5 -98t61.5 -141t0.5 -166q-4 -18 -19.5 -31.5t-34.5 -13.5h-37 q-16 0 -28 12t-8 31q23 154 -43 237.5t-215 83.5q-82 0 -153 -29.5t-126 -83t-94 -127t-58 -161.5q-10 -45 -16 -85t-10 -79h432q43 0 37 -45l-8 -33q-10 -45 -56 -45h-417q-8 -74 -11.5 -146.5t-13.5 -152.5q74 -14 122 -52t88 -78t79 -71.5t92 -31.5q96 0 148.5 55 t78.5 137q4 10 17.5 24.5t29.5 14.5h52q18 0 26 -11t4 -28q-31 -154 -127 -234.5t-229 -80.5q-92 0 -149.5 38t-104.5 83t-92 82.5t-113 37.5q-53 0 -90 -14t-62.5 -38.5t-44 -59.5t-32.5 -76q-4 -10 -13.5 -26.5t-37.5 -16.5h-48q-18 0 -26 11.5t-4 27.5z" />
<glyph unicode="&#xa4;" horiz-adv-x="1179" d="M62 242.5q4 17.5 20 31.5l108 88q-29 53 -37.5 116.5t7.5 135.5q16 74 53 141.5t90 123.5l-67 84q-10 14 -9.5 29.5t19.5 29.5l26 20q37 29 62 -2l63 -84q61 41 131 64.5t144 23.5q72 0 133 -22.5t108 -63.5l111 93q16 14 34.5 14t28.5 -14l27 -33q10 -14 6 -31.5 t-20 -32.5l-111 -90q29 -53 38 -116.5t-7 -133.5q-16 -76 -52 -143.5t-89 -120.5l65 -86q10 -14 9 -29.5t-19 -29.5l-25 -21q-37 -29 -61 2l-66 84q-127 -86 -272 -86q-72 0 -134.5 21.5t-109.5 62.5l-108 -90q-16 -14 -35 -14t-29 14l-26 33q-10 14 -6 31.5zM281 494.5 q10 -56.5 40.5 -97.5t80 -65.5t112.5 -24.5t127 24.5t116 65.5t90 97.5t50 119.5q14 63 3 120t-42 97.5t-80 65.5t-112 25t-126 -25t-115 -65.5t-90 -97.5t-52 -120q-12 -63 -2 -119.5z" />
<glyph unicode="&#xa5;" horiz-adv-x="1200" d="M119 317l8 33q10 45 55 45h305l21 103h-305q-45 0 -35 45l6 32q10 45 55 46h291l-284 751q-10 23 2 42.5t41 19.5h43q29 0 40 -31l252 -664l535 664q25 31 51 31h55q16 0 26.5 -12.5t6.5 -28.5q-2 -10 -14 -27l-598 -745h291q45 0 34 -46l-6 -32q-10 -45 -55 -45h-305 l-21 -103h306q45 0 34 -45l-8 -33q-4 -20 -18.5 -32.5t-34.5 -12.5h-305l-49 -227q-10 -45 -54 -45h-36q-20 0 -30.5 12.5t-6.5 32.5l49 227h-305q-43 0 -37 45z" />
<glyph unicode="&#xa6;" horiz-adv-x="466" d="M51 45l135 635q10 45 56 45h34q45 0 35 -45l-135 -635q-10 -45 -53 -45h-35q-20 0 -30.5 12.5t-6.5 32.5zM258 1018l135 635q10 45 56 45h34q45 0 35 -45l-135 -635q-10 -45 -55 -45h-35q-45 0 -35 45z" />
<glyph unicode="&#xa7;" horiz-adv-x="1132" d="M20 -12q6 41 52 41h37q16 0 26 -8.5t15 -32.5q4 -29 15 -56.5t36.5 -49t69.5 -36t118 -14.5q129 0 203 62.5t92 150.5q10 47 4 80t-32.5 58.5t-77 48t-127.5 47.5q-109 35 -181.5 74.5t-112.5 89t-50.5 109.5t6.5 138q18 88 74.5 145.5t134.5 106.5q-23 37 -25 85t8 101 q12 59 45 118t86 105t127 74.5t168 28.5q104 0 177 -26.5t117 -66.5t60.5 -89t10.5 -92q-6 -41 -52 -41h-36q-16 0 -26.5 8t-14.5 33q-4 27 -14.5 55.5t-36 50t-70.5 35.5t-119 14q-129 0 -202.5 -62.5t-92.5 -150.5q-10 -47 -4 -79.5t33.5 -58.5t78 -48.5t128.5 -46.5 q215 -72 297 -169t49 -251q-20 -88 -81 -141.5t-138 -102.5q23 -37 24.5 -82t-10.5 -98q-12 -59 -45 -118.5t-85 -106.5t-126 -77t-168 -30q-104 0 -177 27t-117 66.5t-60.5 89t-10.5 92.5zM225 589q6 -38 37 -73t94.5 -67.5t167.5 -65.5q127 -41 191 -82q72 41 114.5 84 t57.5 109q8 45 3 83.5t-36 73.5t-93.5 67t-168.5 66q-127 41 -191 82q-72 -41 -113.5 -84t-58.5 -108q-10 -47 -4 -85z" />
<glyph unicode="&#xa8;" horiz-adv-x="567" d="M63 1329l19 78q4 20 18.5 33.5t34.5 13.5h78q20 0 31.5 -13.5t7.5 -33.5l-19 -78q-10 -45 -55 -45h-78q-43 0 -37 45zM377 1329l18 78q4 20 18.5 33.5t35.5 13.5h77q20 0 31.5 -13.5t7.5 -33.5l-18 -78q-10 -45 -55 -45h-78q-43 0 -37 45z" />
<glyph unicode="&#xa9;" horiz-adv-x="1703" d="M136 429q-32 134 1 288t117 288t204 233t264 157.5t298 58.5t276.5 -58.5t203.5 -157.5t113 -233.5t-1 -287.5q-33 -154 -117 -288t-204 -233.5t-264 -157.5t-298 -58t-276.5 58t-203.5 157.5t-113 233.5zM254.5 476q21.5 -114 85 -198.5t163 -135t226.5 -50.5t252 50.5 t228.5 135t178 198.5t101.5 241t5.5 240.5t-85 198.5t-163 135t-226.5 50t-252 -50t-228.5 -135t-178 -198.5t-101.5 -240.5t-5.5 -241zM528 649q4 31 12.5 69.5t16.5 69.5q16 66 50 125.5t83 103.5t113.5 70.5t142.5 26.5q82 0 139.5 -20.5t92 -53t48 -70.5t9.5 -75 q-4 -20 -18.5 -32.5t-34.5 -12.5h-35q-23 0 -31 11t-8 28q2 49 -36 77.5t-126 28.5q-61 0 -107 -20.5t-78 -51t-51.5 -67.5t-27.5 -68t-16.5 -69.5t-12.5 -69.5q-6 -31 -6 -67.5t14.5 -67.5t47 -51.5t94.5 -20.5q88 0 147.5 29t83.5 78q10 16 22.5 27.5t35.5 11.5h34 q45 0 35 -45q-8 -37 -33.5 -75t-70.5 -70.5t-108.5 -53t-145.5 -20.5q-78 0 -134.5 25.5t-92 70.5t-48 104.5t-0.5 124.5z" />
<glyph unicode="&#xaa;" horiz-adv-x="745" d="M203 1034q10 78 83.5 130.5t194.5 68.5l127 18q2 4 5 16.5t-1 25t-20.5 22.5t-52.5 10q-41 0 -67 -6t-42 -14.5t-29.5 -14.5t-29.5 -6h-35q-45 0 -39 35q4 14 20.5 35.5t46 42t73.5 34t102 13.5q117 0 164 -61.5t26 -157.5l-63 -291q-4 -20 -18.5 -32.5t-35.5 -12.5h-34 q-43 0 -37 45l4 14q-23 -29 -65 -49t-97 -20q-90 0 -139 45t-41 110zM330 1038q-4 -20 7 -34.5t46 -14.5q84 0 137 47t66 109l-105 -15q-78 -10 -112.5 -35.5t-38.5 -56.5z" />
<glyph unicode="&#xab;" horiz-adv-x="1232" d="M103.5 623.5q-3.5 17.5 0.5 33.5l7 33q6 35 51 72l465 375q31 25 62.5 20.5t23.5 -39.5l-13 -55q-6 -25 -17 -39t-36 -35l-418 -334l277 -338q16 -20 22.5 -34.5t-2.5 -38.5l-12 -33q-8 -18 -34.5 -22.5t-49.5 24.5l-307 373q-16 20 -19.5 37.5zM613.5 623.5 q-3.5 17.5 0.5 33.5l7 33q6 35 51 72l465 375q31 25 62.5 20.5t23.5 -39.5l-13 -55q-6 -25 -17 -39t-36 -35l-418 -334l277 -338q16 -20 22 -34.5t-2 -38.5l-12 -33q-8 -18 -34.5 -22.5t-49.5 24.5l-307 373q-16 20 -19.5 37.5z" />
<glyph unicode="&#xac;" horiz-adv-x="1198" d="M166 643l6 29q10 45 55 45h789q45 0 35 -45l-60 -279q-4 -20 -18.5 -32.5t-34.5 -12.5h-37q-43 0 -37 45l45 205h-706q-20 0 -30.5 12.5t-6.5 32.5z" />
<glyph unicode="&#xad;" horiz-adv-x="999" d="M150 600l6 29q10 45 53 45h604q20 0 30.5 -12.5t6.5 -32.5l-6 -29q-10 -45 -56 -45h-604q-45 0 -34 45z" />
<glyph unicode="&#xae;" horiz-adv-x="1705" d="M137 429q-31 134 2 288t117 288t201.5 233t263 157.5t299.5 58.5t278.5 -58.5t205.5 -157.5t112 -233.5t-2 -287.5q-33 -154 -117 -288t-202.5 -233.5t-264 -157.5t-299.5 -58t-277.5 58t-204.5 157.5t-112 233.5zM253.5 476q22.5 -114 86 -198.5t164 -135t227.5 -50.5 q125 0 250 50.5t230.5 135t181 198.5t102.5 241t4.5 240.5t-87 198.5t-165 135t-227.5 50q-123 0 -248 -50t-230.5 -135t-181 -198.5t-102.5 -240.5t-4.5 -241zM530 389l140 660q10 45 55 45h240q51 0 101 -12.5t87 -40t55.5 -73.5t5.5 -112q-16 -84 -67 -137t-125 -78 l94 -223q4 -14 2 -29q-4 -16 -18.5 -30.5t-36.5 -14.5h-21q-23 0 -33 10.5t-18 28.5l-96 235h-190l-50 -229q-10 -45 -55 -45h-35q-45 0 -35 45zM729 737h178q94 0 133 36t50 83q6 23 5 44.5t-14.5 37.5t-42 26.5t-77.5 10.5h-181z" />
<glyph unicode="&#xaf;" horiz-adv-x="569" d="M63 1319l7 29q10 45 55 45h407q45 0 35 -45l-6 -29q-4 -20 -18.5 -32.5t-34.5 -12.5h-408q-43 0 -37 45z" />
<glyph unicode="&#xb0;" horiz-adv-x="772" d="M223 1079q-10 49 2 107q12 57 43 106t74 85t96.5 56.5t112.5 20.5q129 0 192.5 -75.5t38.5 -192.5q-12 -57 -42.5 -106.5t-73.5 -85.5t-96.5 -56t-110.5 -20q-66 0 -115 20t-80 56t-41 85zM348 1186q-14 -70 12.5 -113t98.5 -43q33 0 65.5 11.5t60 32t48 49t26.5 63.5 q16 70 -11 112.5t-97 42.5q-33 0 -65.5 -11t-60.5 -31.5t-48.5 -49t-28.5 -63.5z" />
<glyph unicode="&#xb1;" horiz-adv-x="1132" d="M47 45l6 29q10 45 56 45h725q45 0 34 -45l-6 -29q-10 -45 -53 -45h-725q-20 0 -30.5 12.5t-6.5 32.5zM188 809l7 29q10 45 55 45h321l68 315q10 45 55 45h33q45 0 35 -45l-68 -315h322q45 0 35 -45l-7 -29q-4 -20 -18 -32.5t-35 -12.5h-321l-70 -324q-10 -45 -53 -45h-33 q-20 0 -30.5 12.5t-6.5 32.5l70 324h-322q-43 0 -37 45z" />
<glyph unicode="&#xb2;" horiz-adv-x="684" d="M92 762l6 35q4 16 16.5 30.5t47.5 36.5q113 70 193.5 118t132.5 86t81 72t37 77q12 53 -21.5 83.5t-87.5 30.5q-41 0 -68.5 -10t-45 -24.5t-27.5 -30t-16 -23.5q-16 -23 -28.5 -30t-29.5 -7h-30q-39 0 -29 39q10 37 35.5 72t62.5 63.5t83 46t97 17.5q57 0 103.5 -18.5 t76 -50t42 -72.5t2.5 -86q-12 -57 -39 -102.5t-75 -88.5t-119.5 -89t-174.5 -105h311q43 0 37 -46l-6 -24q-10 -45 -55 -45h-479q-43 0 -33 45z" />
<glyph unicode="&#xb3;" horiz-adv-x="681" d="M110 870q0 20 16.5 29.5t26.5 9.5h41q14 0 24.5 -9t14.5 -19q6 -12 13.5 -22.5t20.5 -18.5t38.5 -13.5t68.5 -5.5q68 0 120 27t63 76q12 59 -25 80.5t-102 21.5h-82q-45 0 -35 45l8 35q6 25 35 47l217 166h-291q-45 0 -35 45l5 25q10 45 55 45h405q45 0 35 -45l-4 -25 q-6 -23 -15 -40t-36 -40l-186 -143q102 -6 145 -68.5t25 -148.5q-23 -102 -92.5 -159.5t-213.5 -57.5q-129 0 -195.5 49t-64.5 114z" />
<glyph unicode="&#xb4;" horiz-adv-x="458" d="M62.5 1237q-5.5 18 17.5 41l178 170q23 20 38 28.5t46 8.5h84q29 0 32 -24.5t-18 -39.5l-262 -182q-20 -14 -33.5 -17t-33.5 -3h-23q-20 0 -25.5 18z" />
<glyph unicode="&#xb5;" horiz-adv-x="1200" d="M-49 -365l293 1385q10 45 55 45h35q45 0 35 -45l-121 -571q-18 -82 -5 -147.5t47 -111t84 -69t107 -23.5t122 23.5t121 69t100 111t63 147.5l121 571q10 45 55 45h35q45 0 35 -45l-207 -975q-10 -45 -54 -45h-34q-20 0 -30.5 12.5t-6.5 32.5l20 96q-66 -70 -143.5 -115.5 t-196.5 -45.5q-121 0 -190.5 46t-108.5 115l-106 -506q-10 -45 -56 -45h-34q-45 0 -35 45z" />
<glyph unicode="&#xb6;" horiz-adv-x="1005" d="M160 929.5q-14 65.5 2 141.5q14 76 57 141.5t102.5 114.5t131 78t147.5 29h367q43 0 37 -45l-330 -1549q-10 -45 -56 -45h-34q-45 0 -35 45l313 1475h-162l-313 -1475q-10 -45 -55 -45h-35q-45 0 -35 45l184 869q-76 0 -135 28.5t-98 77.5t-53 114.5z" />
<glyph unicode="&#xb7;" horiz-adv-x="667" d="M129 614q8 43 32.5 80t58.5 64.5t75 44t84 16.5q86 0 132 -59.5t28 -145.5q-8 -43 -33 -79.5t-58.5 -64.5t-73.5 -44t-83 -16q-86 0 -132 59t-30 145z" />
<glyph unicode="&#xb8;" horiz-adv-x="512" d="M63.5 -375.5q-8.5 17.5 8.5 29.5l32 27q12 10 21.5 6t22 -13.5t33 -19.5t57.5 -10q35 0 65.5 21.5t38.5 60.5q8 37 -14.5 57t-57.5 20q-25 0 -44 -6t-33.5 -10t-26.5 -4t-21 12l-24 35q-8 12 2 28.5t20 32.5l107 164h119l-123 -174q14 8 36.5 12.5t45.5 4.5 q31 0 55.5 -13.5t40.5 -37t22.5 -55.5t-2.5 -68q-16 -74 -66 -124.5t-140 -50.5q-43 0 -81 12.5t-61.5 29t-32 34z" />
<glyph unicode="&#xb9;" horiz-adv-x="466" d="M168 1239q4 19 22 31l232 149q23 14 51 15h28q45 0 35 -45l-133 -627q-10 -45 -53 -45h-37q-45 0 -35 45l105 493l-142 -90q-16 -10 -35.5 -9t-25.5 20l-10 28q-6 16 -2 35z" />
<glyph unicode="&#xba;" horiz-adv-x="733" d="M223 1116q2 16 9.5 45t11.5 45q33 123 112.5 180.5t178.5 57.5q49 0 90 -14.5t68.5 -43t39.5 -73.5t2 -107q-2 -16 -9 -44.5t-11 -45.5q-33 -123 -108 -180t-181 -57t-164.5 57t-38.5 180zM348 1116q-10 -59 9.5 -89t80.5 -30q57 0 96 30t56 89q4 16 11 45t9 45 q8 53 -10.5 86t-79.5 33q-57 0 -97 -32.5t-54 -86.5q-4 -16 -11.5 -44.5t-9.5 -45.5z" />
<glyph unicode="&#xbb;" horiz-adv-x="1228" d="M35 227l12 56q6 25 17.5 39t35.5 34l418 334l-276 338q-16 20 -22.5 34.5t1.5 39.5l12 33q8 18 35 22t49 -24l308 -373q16 -20 19 -37.5t-1 -34.5l-6 -33q-6 -35 -51 -71l-465 -375q-31 -25 -62.5 -20.5t-23.5 38.5zM545 227l12 56q6 25 17.5 39t35.5 34l418 334 l-276 338q-16 20 -22.5 34.5t1.5 39.5l12 33q8 18 35 22t49 -24l308 -373q16 -20 19 -37.5t-1 -34.5l-6 -33q-6 -35 -51 -71l-465 -375q-31 -25 -62.5 -20.5t-23.5 38.5z" />
<glyph unicode="&#xbc;" horiz-adv-x="1406" d="M-14 22.5q-5 22.5 14 40.5l1292 1332q18 18 32.5 28.5t43.5 10.5h51q29 0 34 -22.5t-14 -41.5l-1292 -1331q-18 -18 -32.5 -28.5t-43.5 -10.5h-51q-29 0 -34 22.5zM236 1239q4 19 22 31l232 149q23 14 51 15h28q45 0 35 -45l-133 -627q-10 -45 -53 -45h-37q-45 0 -35 45 l105 493l-142 -90q-16 -10 -35.5 -9t-25.5 20l-10 28q-6 16 -2 35zM628 198l4 27q2 8 9.5 22.5t29.5 39.5l365 393q20 23 40.5 30t35.5 7h53q45 0 35 -45l-86 -404h71q20 0 30.5 -12t6.5 -33l-6 -25q-10 -45 -55 -45h-72l-22 -108q-10 -45 -56 -45h-35q-45 0 -34 45l22 108 h-301q-41 0 -35 45zM802 268h187l57 262z" />
<glyph unicode="&#xbd;" horiz-adv-x="1480" d="M-14 22.5q-5 22.5 14 40.5l1292 1332q18 18 32.5 28.5t43.5 10.5h51q29 0 34 -22.5t-14 -41.5l-1292 -1331q-18 -18 -32.5 -28.5t-43.5 -10.5h-51q-29 0 -34 22.5zM236 1239q4 19 22 31l232 149q23 14 51 15h28q45 0 35 -45l-133 -627q-10 -45 -53 -45h-37q-45 0 -35 45 l105 493l-142 -90q-16 -10 -35.5 -9t-25.5 20l-10 28q-6 16 -2 35zM705 45l6 35q4 16 16.5 30.5t47.5 36.5q113 70 193.5 118t132.5 86t81 72t37 77q12 53 -21.5 83.5t-87.5 30.5q-41 0 -68.5 -10t-45 -24.5t-27.5 -30t-16 -23.5q-16 -23 -28.5 -30t-29.5 -7h-30 q-39 0 -29 39q10 37 35.5 72t62.5 63.5t83 46t97 17.5q57 0 103.5 -18.5t76 -50t42 -72.5t2.5 -86q-12 -57 -39 -102.5t-75 -88.5t-119.5 -89t-174.5 -105h311q43 0 37 -46l-6 -24q-10 -45 -55 -45h-479q-43 0 -33 45z" />
<glyph unicode="&#xbe;" horiz-adv-x="1499" d="M79 22.5q-5 22.5 14 40.5l1292 1332q18 18 32.5 28.5t43.5 10.5h51q29 0 34 -22.5t-14 -41.5l-1292 -1331q-18 -18 -32.5 -28.5t-43.5 -10.5h-51q-29 0 -34 22.5zM151 870q0 20 16.5 29.5t26.5 9.5h41q14 0 24.5 -9t14.5 -19q6 -12 13.5 -22.5t20.5 -18.5t38.5 -13.5 t68.5 -5.5q68 0 120 27t63 76q12 59 -25 80.5t-102 21.5h-82q-45 0 -35 45l8 35q6 25 35 47l217 166h-291q-45 0 -35 45l5 25q10 45 55 45h405q45 0 35 -45l-4 -25q-6 -23 -15 -40t-36 -40l-186 -143q102 -6 145 -68.5t25 -148.5q-23 -102 -92.5 -159.5t-213.5 -57.5 q-129 0 -195.5 49t-64.5 114zM721 198l4 27q2 8 9.5 22.5t29.5 39.5l365 393q20 23 40.5 30t35.5 7h53q45 0 35 -45l-86 -404h71q20 0 30.5 -12t6.5 -33l-6 -25q-10 -45 -55 -45h-72l-22 -108q-10 -45 -56 -45h-35q-45 0 -34 45l22 108h-301q-41 0 -35 45zM895 268h187 l57 262z" />
<glyph unicode="&#xbf;" horiz-adv-x="1011" d="M-68.5 -146.5q-11.5 68.5 8.5 140.5t61.5 129t93.5 107.5t107.5 95.5t103.5 92t85 98t49 113l21 98q10 45 55 45h35q45 0 35 -45l-21 -98q-25 -117 -95.5 -201t-151.5 -152.5t-152.5 -134t-98.5 -145.5q-20 -63 -9 -113.5t45 -84t86.5 -51t111.5 -17.5t117.5 15t110.5 49 t95.5 88.5t73.5 131.5q10 29 26.5 37t33.5 8h32q41 0 35 -41q-20 -86 -68.5 -159.5t-117 -129t-154.5 -87t-184 -31.5q-113 0 -190.5 32.5t-122.5 87t-56.5 123zM481 942l17 78q10 45 55 45h78q20 0 30.5 -12.5t6.5 -32.5l-17 -78q-4 -20 -19.5 -33.5t-35.5 -13.5h-78 q-20 0 -30.5 13.5t-6.5 33.5z" />
<glyph unicode="&#xc0;" horiz-adv-x="1337" d="M-71 20.5q-9 20.5 3 42.5l801 1330q12 20 27.5 30.5t40.5 10.5h86q45 0 51 -41l236 -1330q6 -31 -5.5 -47t-31.5 -16h-43q-39 0 -47 43l-62 315h-723l-201 -327q-18 -31 -51 -31h-45q-27 0 -36 20.5zM336 481h629l-144 807zM609 1777.5q14 24.5 43 24.5h94q31 0 42 -8 t25 -29l105 -170q10 -18 -1 -38.5t-34 -20.5h-31q-20 0 -32.5 3t-26.5 17l-178 177q-20 20 -6 44.5z" />
<glyph unicode="&#xc1;" horiz-adv-x="1337" d="M-71 20.5q-9 20.5 3 42.5l801 1330q12 20 27.5 30.5t40.5 10.5h86q45 0 51 -41l236 -1330q6 -31 -5.5 -47t-31.5 -16h-43q-39 0 -47 43l-62 315h-723l-201 -327q-18 -31 -51 -31h-45q-27 0 -36 20.5zM336 481h629l-144 807zM800 1556.5q-2 20.5 15 34.5l182 174 q20 20 36.5 28.5t47.5 8.5h94q31 0 33 -24.5t-18 -38.5l-263 -183q-20 -14 -33.5 -17t-33.5 -3h-31q-27 0 -29 20.5z" />
<glyph unicode="&#xc2;" horiz-adv-x="1337" d="M-71 20.5q-9 20.5 3 42.5l801 1330q12 20 27.5 30.5t40.5 10.5h86q45 0 51 -41l236 -1330q6 -31 -5.5 -47t-31.5 -16h-43q-39 0 -47 43l-62 315h-723l-201 -327q-18 -31 -51 -31h-45q-27 0 -36 20.5zM336 481h629l-144 807zM568.5 1553.5q-3.5 17.5 19.5 33.5l229 187 q27 23 41.5 25.5t30.5 2.5h20q16 0 29.5 -3t30.5 -25l149 -185q16 -23 6 -38t-28 -15h-41q-20 0 -35 14l-133 123l-186 -123q-10 -6 -18.5 -10t-20.5 -4h-70q-20 0 -23.5 17.5z" />
<glyph unicode="&#xc3;" horiz-adv-x="1337" d="M-71 20.5q-9 20.5 3 42.5l801 1330q12 20 27.5 30.5t40.5 10.5h86q45 0 51 -41l236 -1330q6 -31 -5.5 -47t-31.5 -16h-43q-39 0 -47 43l-62 315h-723l-201 -327q-18 -31 -51 -31h-45q-27 0 -36 20.5zM336 481h629l-144 807zM606 1569q4 29 20.5 57.5t40 51t54.5 37 t62 14.5q37 0 61.5 -11.5t44 -24t37.5 -23.5t41 -11q27 0 40 9t23.5 21.5t19.5 21.5t25 9h41q16 0 22.5 -10t4.5 -22q-4 -29 -20.5 -59t-41 -52.5t-54 -36.5t-60.5 -14q-35 0 -60.5 11t-46 23.5t-39 23.5t-38.5 11q-25 0 -39.5 -9t-24.5 -20.5t-19.5 -20.5t-25.5 -9h-41 q-16 0 -22.5 10.5t-4.5 22.5z" />
<glyph unicode="&#xc4;" horiz-adv-x="1337" d="M-71 20.5q-9 20.5 3 42.5l801 1330q12 20 27.5 30.5t40.5 10.5h86q45 0 51 -41l236 -1330q6 -31 -5.5 -47t-31.5 -16h-43q-39 0 -47 43l-62 315h-723l-201 -327q-18 -31 -51 -31h-45q-27 0 -36 20.5zM336 481h629l-144 807zM591 1581l17 78q4 20 19.5 33.5t35.5 13.5h78 q20 0 30.5 -13.5t6.5 -33.5l-17 -78q-4 -20 -20 -32.5t-37 -12.5h-78q-45 0 -35 45zM966 1581l17 78q4 20 19 33.5t36 13.5h78q20 0 30.5 -13.5t6.5 -33.5l-17 -78q-4 -20 -20.5 -32.5t-36.5 -12.5h-78q-45 0 -35 45z" />
<glyph unicode="&#xc5;" horiz-adv-x="1337" d="M-71 20.5q-9 20.5 3 42.5l801 1330q12 20 27.5 30.5t40.5 10.5h86q45 0 51 -41l236 -1330q6 -31 -5.5 -47t-31.5 -16h-43q-39 0 -47 43l-62 315h-723l-201 -327q-18 -31 -51 -31h-45q-27 0 -36 20.5zM336 481h629l-144 807zM718 1669q16 68 69.5 111t121.5 43t110 -43 t27 -111q-16 -70 -69.5 -111.5t-120.5 -41.5q-35 0 -62.5 11t-47 31.5t-28 49t-0.5 61.5zM821 1669q-6 -27 5 -44t36 -17q31 0 53.5 17t28.5 44t-4.5 44.5t-38.5 17.5q-31 0 -52.5 -17.5t-27.5 -44.5z" />
<glyph unicode="&#xc6;" horiz-adv-x="1931" d="M-59 27.5q-2 11.5 1 23.5t9 23l794 1321q16 25 32 32t30 7h1126q47 0 37 -48l-6 -30q-10 -45 -55 -45h-715l-113 -523h670q47 0 37 -47l-6 -30q-10 -45 -56 -45h-669l-117 -543h731q47 0 37 -47l-6 -31q-10 -45 -55 -45h-816q-20 0 -30 12.5t-6 32.5l67 313h-588 l-200 -327q-18 -31 -51 -31h-41q-20 0 -29.5 8t-11.5 19.5zM348 481h539l174 815h-223z" />
<glyph unicode="&#xc7;" horiz-adv-x="1331" d="M110.5 333q-8.5 93 10.5 202q14 84 34.5 180t43.5 184q31 119 83 221.5t131 176t186.5 115.5t246.5 42q145 0 241.5 -40t150.5 -103.5t70.5 -142t4.5 -156.5q-6 -41 -39 -41h-47q-16 0 -31.5 9t-11.5 34q8 86 -12.5 146.5t-65.5 98t-111.5 55t-148.5 17.5 q-188 0 -325.5 -105.5t-194.5 -336.5q-43 -170 -74 -344q-41 -233 40 -338t269 -105q82 0 154.5 15.5t135 52.5t114 97.5t90.5 152.5q10 25 22.5 34t28.5 9h47q18 0 28.5 -11.5t4.5 -29.5q-23 -72 -66 -149.5t-115.5 -142t-180 -107.5t-259.5 -43l-69 -97q14 8 36.5 11.5 t45.5 3.5q31 0 55 -13.5t40.5 -37t22.5 -55.5t-2 -68q-16 -74 -66 -124.5t-141 -50.5q-43 0 -80.5 12.5t-61 29t-32 34t8.5 29.5l32 27q12 10 21.5 6t22 -13.5t33 -19.5t56.5 -10q35 0 66 21.5t39 60.5q8 37 -14.5 57t-57.5 20q-25 0 -44 -6t-33.5 -10t-27 -4t-20.5 12 l-24 35q-8 12 2 28.5t20 32.5l62 97q-109 14 -182.5 61t-113.5 119t-48.5 165z" />
<glyph unicode="&#xc8;" horiz-adv-x="1210" d="M74 45l284 1341q10 47 56 48h798q47 0 37 -48l-6 -30q-10 -45 -55 -45h-715l-113 -523h670q47 0 37 -47l-6 -30q-10 -45 -55 -45h-670l-117 -543h731q47 0 37 -47l-6 -31q-10 -45 -55 -45h-815q-20 0 -30.5 12.5t-6.5 32.5zM609 1777.5q14 24.5 43 24.5h94q31 0 42 -8 t25 -29l105 -170q10 -18 -1 -38.5t-34 -20.5h-31q-20 0 -32.5 3t-26.5 17l-178 177q-20 20 -6 44.5z" />
<glyph unicode="&#xc9;" horiz-adv-x="1210" d="M74 45l284 1341q10 47 56 48h798q47 0 37 -48l-6 -30q-10 -45 -55 -45h-715l-113 -523h670q47 0 37 -47l-6 -30q-10 -45 -55 -45h-670l-117 -543h731q47 0 37 -47l-6 -31q-10 -45 -55 -45h-815q-20 0 -30.5 12.5t-6.5 32.5zM764 1556.5q-2 20.5 15 34.5l182 174 q20 20 36.5 28.5t47.5 8.5h94q31 0 33 -24.5t-18 -38.5l-263 -183q-20 -14 -33.5 -17t-33.5 -3h-31q-27 0 -29 20.5z" />
<glyph unicode="&#xca;" horiz-adv-x="1210" d="M74 45l284 1341q10 47 56 48h798q47 0 37 -48l-6 -30q-10 -45 -55 -45h-715l-113 -523h670q47 0 37 -47l-6 -30q-10 -45 -55 -45h-670l-117 -543h731q47 0 37 -47l-6 -31q-10 -45 -55 -45h-815q-20 0 -30.5 12.5t-6.5 32.5zM537.5 1553.5q-3.5 17.5 19.5 33.5l229 187 q27 23 41.5 25.5t30.5 2.5h20q16 0 29.5 -3t30.5 -25l149 -185q16 -23 6 -38t-28 -15h-41q-20 0 -35 14l-133 123l-186 -123q-10 -6 -18.5 -10t-20.5 -4h-70q-20 0 -23.5 17.5z" />
<glyph unicode="&#xcb;" horiz-adv-x="1210" d="M74 45l284 1341q10 47 56 48h798q47 0 37 -48l-6 -30q-10 -45 -55 -45h-715l-113 -523h670q47 0 37 -47l-6 -30q-10 -45 -55 -45h-670l-117 -543h731q47 0 37 -47l-6 -31q-10 -45 -55 -45h-815q-20 0 -30.5 12.5t-6.5 32.5zM561 1581l17 78q4 20 19.5 33.5t35.5 13.5h78 q20 0 30.5 -13.5t6.5 -33.5l-17 -78q-4 -20 -20 -32.5t-37 -12.5h-78q-45 0 -35 45zM936 1581l17 78q4 20 19 33.5t36 13.5h78q20 0 30.5 -13.5t6.5 -33.5l-17 -78q-4 -20 -20.5 -32.5t-36.5 -12.5h-78q-45 0 -35 45z" />
<glyph unicode="&#xcc;" horiz-adv-x="516" d="M72 45l288 1344q4 20 18.5 32.5t35.5 12.5h39q43 0 36 -45l-286 -1344q-10 -45 -53 -45h-41q-20 0 -30.5 12.5t-6.5 32.5zM224 1777.5q14 24.5 43 24.5h94q31 0 42 -8t25 -29l105 -170q10 -18 -1 -38.5t-34 -20.5h-31q-20 0 -32.5 3t-26.5 17l-178 177q-20 20 -6 44.5z " />
<glyph unicode="&#xcd;" horiz-adv-x="516" d="M72 45l288 1344q4 20 18.5 32.5t35.5 12.5h39q43 0 36 -45l-286 -1344q-10 -45 -53 -45h-41q-20 0 -30.5 12.5t-6.5 32.5zM391 1556.5q-2 20.5 15 34.5l182 174q20 20 36.5 28.5t47.5 8.5h94q31 0 33 -24.5t-18 -38.5l-263 -183q-20 -14 -33.5 -17t-33.5 -3h-31 q-27 0 -29 20.5z" />
<glyph unicode="&#xce;" horiz-adv-x="516" d="M72 45l288 1344q4 20 18.5 32.5t35.5 12.5h39q43 0 36 -45l-286 -1344q-10 -45 -53 -45h-41q-20 0 -30.5 12.5t-6.5 32.5zM166.5 1553.5q-3.5 17.5 19.5 33.5l229 187q27 23 41.5 25.5t30.5 2.5h20q16 0 29.5 -3t30.5 -25l149 -185q16 -23 6 -38t-28 -15h-41 q-20 0 -35 14l-133 123l-186 -123q-10 -6 -18.5 -10t-20.5 -4h-70q-20 0 -23.5 17.5z" />
<glyph unicode="&#xcf;" horiz-adv-x="516" d="M72 45l288 1344q4 20 18.5 32.5t35.5 12.5h39q43 0 36 -45l-286 -1344q-10 -45 -53 -45h-41q-20 0 -30.5 12.5t-6.5 32.5zM192 1581l17 78q4 20 19.5 33.5t35.5 13.5h78q20 0 30.5 -13.5t6.5 -33.5l-17 -78q-4 -20 -20 -32.5t-37 -12.5h-78q-45 0 -35 45zM567 1581l17 78 q4 20 19 33.5t36 13.5h78q20 0 30.5 -13.5t6.5 -33.5l-17 -78q-4 -20 -20.5 -32.5t-36.5 -12.5h-78q-45 0 -35 45z" />
<glyph unicode="&#xd0;" horiz-adv-x="1400" d="M55 705l6 32q4 20 19.5 32.5t36.5 12.5h129l127 604q10 47 55 48h416q281 0 403.5 -142.5t69.5 -410.5q-18 -92 -33.5 -163t-36.5 -163q-33 -141 -82 -245.5t-125.5 -173t-185.5 -102.5t-262 -34h-467q-20 0 -30.5 12.5t-6.5 32.5l131 614h-129q-41 0 -35 46zM233 123 h353q123 0 211 24.5t150.5 76.5t103.5 136t69 205q10 45 18.5 82t15.5 71t14.5 69.5t17.5 82.5q20 113 14 196t-48 137t-121 81t-202 27h-342l-112 -529h307q41 0 35 -45l-6 -32q-4 -20 -19.5 -33t-36.5 -13h-307z" />
<glyph unicode="&#xd1;" horiz-adv-x="1406" d="M74 45l284 1341q10 47 54 48h41q20 0 27 -8.5t12 -16.5l514 -1169l243 1146q10 47 56 48h36q47 0 37 -48l-284 -1339q-10 -47 -54 -47h-41q-20 0 -27 8t-11 17l-512 1165l-244 -1145q-10 -45 -55 -45h-39q-20 0 -30.5 12.5t-6.5 32.5zM630 1569q4 29 20.5 57.5t40 51 t54.5 37t62 14.5q37 0 61.5 -11.5t44 -24t37.5 -23.5t41 -11q27 0 40 9t23.5 21.5t19.5 21.5t25 9h41q16 0 22.5 -10t4.5 -22q-4 -29 -20.5 -59t-41 -52.5t-54 -36.5t-60.5 -14q-35 0 -60.5 11t-46 23.5t-39 23.5t-38.5 11q-25 0 -39.5 -9t-24.5 -20.5t-19.5 -20.5t-25.5 -9 h-41q-16 0 -22.5 10.5t-4.5 22.5z" />
<glyph unicode="&#xd2;" d="M115.5 292.5q-19.5 106.5 7.5 252.5q16 92 33.5 172t40.5 172q68 287 235.5 426t411.5 139q119 0 212 -35t151.5 -105.5t78 -176t-7.5 -248.5q-16 -92 -33.5 -172t-40.5 -172q-70 -291 -238.5 -428t-408.5 -137q-121 0 -213 33.5t-150.5 103t-78 176zM254 555 q-43 -240 35 -346.5t268 -106.5q92 0 173 26t148.5 81t119 140t79.5 206q23 92 38 161.5t32 162.5q43 240 -36 346t-267 106q-92 0 -174 -25.5t-149.5 -81t-118 -141.5t-78.5 -204q-23 -92 -38.5 -162t-31.5 -162zM625 1777.5q14 24.5 43 24.5h94q31 0 42 -8t25 -29 l105 -170q10 -18 -1 -38.5t-34 -20.5h-31q-20 0 -32.5 3t-26.5 17l-178 177q-20 20 -6 44.5z" />
<glyph unicode="&#xd3;" d="M115.5 292.5q-19.5 106.5 7.5 252.5q16 92 33.5 172t40.5 172q68 287 235.5 426t411.5 139q119 0 212 -35t151.5 -105.5t78 -176t-7.5 -248.5q-16 -92 -33.5 -172t-40.5 -172q-70 -291 -238.5 -428t-408.5 -137q-121 0 -213 33.5t-150.5 103t-78 176zM254 555 q-43 -240 35 -346.5t268 -106.5q92 0 173 26t148.5 81t119 140t79.5 206q23 92 38 161.5t32 162.5q43 240 -36 346t-267 106q-92 0 -174 -25.5t-149.5 -81t-118 -141.5t-78.5 -204q-23 -92 -38.5 -162t-31.5 -162zM782 1556.5q-2 20.5 15 34.5l182 174q20 20 36.5 28.5 t47.5 8.5h94q31 0 33 -24.5t-18 -38.5l-263 -183q-20 -14 -33.5 -17t-33.5 -3h-31q-27 0 -29 20.5z" />
<glyph unicode="&#xd4;" d="M115.5 292.5q-19.5 106.5 7.5 252.5q16 92 33.5 172t40.5 172q68 287 235.5 426t411.5 139q119 0 212 -35t151.5 -105.5t78 -176t-7.5 -248.5q-16 -92 -33.5 -172t-40.5 -172q-70 -291 -238.5 -428t-408.5 -137q-121 0 -213 33.5t-150.5 103t-78 176zM254 555 q-43 -240 35 -346.5t268 -106.5q92 0 173 26t148.5 81t119 140t79.5 206q23 92 38 161.5t32 162.5q43 240 -36 346t-267 106q-92 0 -174 -25.5t-149.5 -81t-118 -141.5t-78.5 -204q-23 -92 -38.5 -162t-31.5 -162zM582.5 1553.5q-3.5 17.5 19.5 33.5l229 187 q27 23 41.5 25.5t30.5 2.5h20q16 0 29.5 -3t30.5 -25l149 -185q16 -23 6 -38t-28 -15h-41q-20 0 -35 14l-133 123l-186 -123q-10 -6 -18.5 -10t-20.5 -4h-70q-20 0 -23.5 17.5z" />
<glyph unicode="&#xd5;" d="M115.5 292.5q-19.5 106.5 7.5 252.5q16 92 33.5 172t40.5 172q68 287 235.5 426t411.5 139q119 0 212 -35t151.5 -105.5t78 -176t-7.5 -248.5q-16 -92 -33.5 -172t-40.5 -172q-70 -291 -238.5 -428t-408.5 -137q-121 0 -213 33.5t-150.5 103t-78 176zM254 555 q-43 -240 35 -346.5t268 -106.5q92 0 173 26t148.5 81t119 140t79.5 206q23 92 38 161.5t32 162.5q43 240 -36 346t-267 106q-92 0 -174 -25.5t-149.5 -81t-118 -141.5t-78.5 -204q-23 -92 -38.5 -162t-31.5 -162zM628 1569q4 29 20.5 57.5t40 51t54.5 37t62 14.5 q37 0 61.5 -11.5t44 -24t37.5 -23.5t41 -11q27 0 40 9t23.5 21.5t19.5 21.5t25 9h41q16 0 22.5 -10t4.5 -22q-4 -29 -20.5 -59t-41 -52.5t-54 -36.5t-60.5 -14q-35 0 -60.5 11t-46 23.5t-39 23.5t-38.5 11q-25 0 -39.5 -9t-24.5 -20.5t-19.5 -20.5t-25.5 -9h-41 q-16 0 -22.5 10.5t-4.5 22.5z" />
<glyph unicode="&#xd6;" d="M115.5 292.5q-19.5 106.5 7.5 252.5q16 92 33.5 172t40.5 172q68 287 235.5 426t411.5 139q119 0 212 -35t151.5 -105.5t78 -176t-7.5 -248.5q-16 -92 -33.5 -172t-40.5 -172q-70 -291 -238.5 -428t-408.5 -137q-121 0 -213 33.5t-150.5 103t-78 176zM254 555 q-43 -240 35 -346.5t268 -106.5q92 0 173 26t148.5 81t119 140t79.5 206q23 92 38 161.5t32 162.5q43 240 -36 346t-267 106q-92 0 -174 -25.5t-149.5 -81t-118 -141.5t-78.5 -204q-23 -92 -38.5 -162t-31.5 -162zM604 1581l17 78q4 20 19.5 33.5t35.5 13.5h78 q20 0 30.5 -13.5t6.5 -33.5l-17 -78q-4 -20 -20 -32.5t-37 -12.5h-78q-45 0 -35 45zM979 1581l17 78q4 20 19 33.5t36 13.5h78q20 0 30.5 -13.5t6.5 -33.5l-17 -78q-4 -20 -20.5 -32.5t-36.5 -12.5h-78q-45 0 -35 45z" />
<glyph unicode="&#xd7;" horiz-adv-x="1099" d="M72 340.5q4 17.5 20 32.5l385 313l-239 315q-10 14 -7.5 32t19.5 32l18 14q16 14 35 14.5t29 -14.5l241 -321l392 325q16 14 34.5 14.5t28.5 -14.5l23 -28q10 -14 7 -31.5t-20 -32.5l-389 -317l246 -314q10 -14 6 -31.5t-20 -31.5l-17 -12q-16 -14 -34.5 -14.5 t-28.5 14.5l-248 311l-389 -317q-16 -14 -34.5 -14.5t-29.5 14.5l-22 30q-10 14 -6 31.5z" />
<glyph unicode="&#xd8;" horiz-adv-x="1392" d="M-12 457l8 39q4 23 16.5 32t38.5 19l99 35q16 80 30.5 151.5t36.5 155.5q68 287 236 426t411 139q106 0 192.5 -27.5t145 -85t87 -142.5t22.5 -200l82 29q20 8 42.5 4t16.5 -35l-8 -39q-4 -23 -16.5 -31.5t-38.5 -19.5l-93 -33q-16 -88 -32.5 -164.5t-38.5 -164.5 q-70 -291 -239 -428t-408 -137q-111 0 -199 28.5t-146.5 87t-85 147.5t-16.5 212l-84 -29q-23 -10 -44 -5t-15 36zM266 504q-29 -213 51 -307.5t261 -94.5q92 0 172.5 26t148.5 81t119 140t80 206q18 78 31.5 138.5t27.5 129.5zM289 631l889 319q20 201 -60 291t-254 90 q-92 0 -174 -25.5t-149.5 -81t-117.5 -141.5t-79 -204q-18 -72 -30.5 -128.5t-24.5 -119.5z" />
<glyph unicode="&#xd9;" horiz-adv-x="1415" d="M170 555l176 831q10 47 55 48h37q47 0 37 -48l-178 -837q-49 -231 16.5 -339t272.5 -108q199 0 328.5 107.5t179.5 339.5l178 837q10 47 57 48h37q45 0 35 -48l-176 -831q-63 -299 -218 -437t-421 -138t-373 138t-43 437zM646 1777.5q14 24.5 43 24.5h94q31 0 42 -8 t25 -29l105 -170q10 -18 -1 -38.5t-34 -20.5h-31q-20 0 -32.5 3t-26.5 17l-178 177q-20 20 -6 44.5z" />
<glyph unicode="&#xda;" horiz-adv-x="1415" d="M170 555l176 831q10 47 55 48h37q47 0 37 -48l-178 -837q-49 -231 16.5 -339t272.5 -108q199 0 328.5 107.5t179.5 339.5l178 837q10 47 57 48h37q45 0 35 -48l-176 -831q-63 -299 -218 -437t-421 -138t-373 138t-43 437zM817 1556.5q-2 20.5 15 34.5l182 174 q20 20 36.5 28.5t47.5 8.5h94q31 0 33 -24.5t-18 -38.5l-263 -183q-20 -14 -33.5 -17t-33.5 -3h-31q-27 0 -29 20.5z" />
<glyph unicode="&#xdb;" horiz-adv-x="1415" d="M170 555l176 831q10 47 55 48h37q47 0 37 -48l-178 -837q-49 -231 16.5 -339t272.5 -108q199 0 328.5 107.5t179.5 339.5l178 837q10 47 57 48h37q45 0 35 -48l-176 -831q-63 -299 -218 -437t-421 -138t-373 138t-43 437zM594.5 1553.5q-3.5 17.5 19.5 33.5l229 187 q27 23 41.5 25.5t30.5 2.5h20q16 0 29.5 -3t30.5 -25l149 -185q16 -23 6 -38t-28 -15h-41q-20 0 -35 14l-133 123l-186 -123q-10 -6 -18.5 -10t-20.5 -4h-70q-20 0 -23.5 17.5z" />
<glyph unicode="&#xdc;" horiz-adv-x="1415" d="M170 555l176 831q10 47 55 48h37q47 0 37 -48l-178 -837q-49 -231 16.5 -339t272.5 -108q199 0 328.5 107.5t179.5 339.5l178 837q10 47 57 48h37q45 0 35 -48l-176 -831q-63 -299 -218 -437t-421 -138t-373 138t-43 437zM620 1581l17 78q4 20 19.5 33.5t35.5 13.5h78 q20 0 30.5 -13.5t6.5 -33.5l-17 -78q-4 -20 -20 -32.5t-37 -12.5h-78q-45 0 -35 45zM995 1581l17 78q4 20 19 33.5t36 13.5h78q20 0 30.5 -13.5t6.5 -33.5l-17 -78q-4 -20 -20.5 -32.5t-36.5 -12.5h-78q-45 0 -35 45z" />
<glyph unicode="&#xdd;" horiz-adv-x="1288" d="M238 1366q-10 23 4 45.5t43 22.5h34q29 0 41 -31l285 -717l588 717q25 31 53 31h64q35 0 35.5 -22.5t-17.5 -45.5l-674 -819l-108 -502q-10 -45 -56 -45h-34q-20 0 -30.5 12.5t-6.5 32.5l104 502zM723 1556.5q-2 20.5 15 34.5l182 174q20 20 36.5 28.5t47.5 8.5h94 q31 0 33 -24.5t-18 -38.5l-263 -183q-20 -14 -33.5 -17t-33.5 -3h-31q-27 0 -29 20.5z" />
<glyph unicode="&#xde;" horiz-adv-x="1296" d="M74 45l286 1344q4 20 18.5 32.5t35.5 12.5h39q43 0 36 -45l-53 -248h404q227 0 331.5 -106.5t59.5 -317.5t-186.5 -317.5t-362.5 -106.5h-426l-53 -248q-10 -45 -56 -45h-36q-20 0 -30.5 12.5t-6.5 32.5zM283 416h389q168 0 283.5 76.5t146.5 224.5q14 74 12 129 t-30.5 94t-91 58.5t-167.5 19.5h-415z" />
<glyph unicode="&#xdf;" horiz-adv-x="1163" d="M49 45l209 983q18 84 55 161t96.5 136t143.5 94t195 35t185.5 -34t115.5 -87t53 -119.5t-2 -132.5t-40 -116t-57.5 -86.5t-70.5 -63.5t-82 -45q106 -53 147 -150.5t19 -205.5q-14 -68 -47 -141.5t-94.5 -134t-155.5 -99.5t-230 -39h-155q-20 0 -30.5 12.5t-6.5 32.5l6 29 q10 45 55 45h131q84 0 153 22.5t119 62.5t84 94t46 116q14 61 5 115.5t-43 94.5t-92.5 63.5t-142.5 23.5h-135q-45 0 -34 45l6 28q10 45 55 45h108q63 0 123 16.5t107 49.5t81 79t46 107q23 111 -29.5 182.5t-197.5 71.5q-131 0 -231.5 -78.5t-135.5 -238.5l-207 -973 q-10 -45 -53 -45h-35q-20 0 -30.5 12.5t-6.5 32.5z" />
<glyph unicode="&#xe0;" horiz-adv-x="1165" d="M77 297q-7 88 7 178q4 31 10 57.5t15 57.5q23 88 61.5 177t101 159.5t151.5 114.5t212 44q135 0 202.5 -47t102.5 -114l21 96q10 45 53 45h35q20 0 30.5 -12.5t5.5 -32.5l-206 -975q-10 -45 -54 -45h-34q-20 0 -30.5 12.5t-6.5 32.5l20 96q-33 -35 -65.5 -64.5t-73.5 -51 t-92 -33.5t-119 -12q-119 0 -192.5 44t-110.5 114.5t-44 158.5zM200 332.5q1 -68.5 22.5 -120.5t69.5 -83t132 -31q88 0 158.5 33t123 85t86.5 116t50 127q8 31 18 80t17 79q12 61 7 124t-32 112t-79 81t-138 32q-84 0 -148.5 -32t-113.5 -84t-83 -119.5t-54 -141.5 q-10 -31 -15.5 -57.5t-9.5 -57.5q-12 -74 -11 -142.5zM451 1460q14 25 38 25h89q31 0 43 -8.5t24 -28.5l103 -166q12 -20 2.5 -41.5t-35.5 -21.5h-21q-20 0 -32.5 3t-26.5 17l-178 176q-20 20 -6 45z" />
<glyph unicode="&#xe1;" horiz-adv-x="1165" d="M77 297q-7 88 7 178q4 31 10 57.5t15 57.5q23 88 61.5 177t101 159.5t151.5 114.5t212 44q135 0 202.5 -47t102.5 -114l21 96q10 45 53 45h35q20 0 30.5 -12.5t5.5 -32.5l-206 -975q-10 -45 -54 -45h-34q-20 0 -30.5 12.5t-6.5 32.5l20 96q-33 -35 -65.5 -64.5t-73.5 -51 t-92 -33.5t-119 -12q-119 0 -192.5 44t-110.5 114.5t-44 158.5zM200 332.5q1 -68.5 22.5 -120.5t69.5 -83t132 -31q88 0 158.5 33t123 85t86.5 116t50 127q8 31 18 80t17 79q12 61 7 124t-32 112t-79 81t-138 32q-84 0 -148.5 -32t-113.5 -84t-83 -119.5t-54 -141.5 q-10 -31 -15.5 -57.5t-9.5 -57.5q-12 -74 -11 -142.5zM611.5 1237q-5.5 18 17.5 41l178 170q23 20 38 28.5t46 8.5h84q29 0 32 -24.5t-18 -39.5l-262 -182q-20 -14 -33.5 -17t-33.5 -3h-23q-20 0 -25.5 18z" />
<glyph unicode="&#xe2;" horiz-adv-x="1165" d="M77 297q-7 88 7 178q4 31 10 57.5t15 57.5q23 88 61.5 177t101 159.5t151.5 114.5t212 44q135 0 202.5 -47t102.5 -114l21 96q10 45 53 45h35q20 0 30.5 -12.5t5.5 -32.5l-206 -975q-10 -45 -54 -45h-34q-20 0 -30.5 12.5t-6.5 32.5l20 96q-33 -35 -65.5 -64.5t-73.5 -51 t-92 -33.5t-119 -12q-119 0 -192.5 44t-110.5 114.5t-44 158.5zM200 332.5q1 -68.5 22.5 -120.5t69.5 -83t132 -31q88 0 158.5 33t123 85t86.5 116t50 127q8 31 18 80t17 79q12 61 7 124t-32 112t-79 81t-138 32q-84 0 -148.5 -32t-113.5 -84t-83 -119.5t-54 -141.5 q-10 -31 -15.5 -57.5t-9.5 -57.5q-12 -74 -11 -142.5zM394.5 1236q-3.5 17 19.5 34l229 186q27 23 41.5 26t30.5 3h20q16 0 29.5 -3t30.5 -26l149 -184q16 -23 6 -38t-28 -15h-41q-20 0 -35 14l-133 123l-186 -123q-10 -6 -18.5 -10t-20.5 -4h-70q-20 0 -23.5 17z" />
<glyph unicode="&#xe3;" horiz-adv-x="1165" d="M77 297q-7 88 7 178q4 31 10 57.5t15 57.5q23 88 61.5 177t101 159.5t151.5 114.5t212 44q135 0 202.5 -47t102.5 -114l21 96q10 45 53 45h35q20 0 30.5 -12.5t5.5 -32.5l-206 -975q-10 -45 -54 -45h-34q-20 0 -30.5 12.5t-6.5 32.5l20 96q-33 -35 -65.5 -64.5t-73.5 -51 t-92 -33.5t-119 -12q-119 0 -192.5 44t-110.5 114.5t-44 158.5zM200 332.5q1 -68.5 22.5 -120.5t69.5 -83t132 -31q88 0 158.5 33t123 85t86.5 116t50 127q8 31 18 80t17 79q12 61 7 124t-32 112t-79 81t-138 32q-84 0 -148.5 -32t-113.5 -84t-83 -119.5t-54 -141.5 q-10 -31 -15.5 -57.5t-9.5 -57.5q-12 -74 -11 -142.5zM462 1251q8 59 58.5 104.5t114.5 45.5q37 0 59 -11.5t39.5 -23.5t34 -23.5t39.5 -11.5q18 0 30.5 9.5t22.5 21.5t21.5 21.5t27.5 9.5h41q16 0 22.5 -10.5t4.5 -22.5q-4 -29 -19.5 -56.5t-39 -49t-52.5 -34t-59 -12.5 q-35 0 -58.5 11.5t-42 23.5t-35 23.5t-36.5 11.5q-18 0 -30.5 -9t-24 -20.5t-23 -20.5t-27.5 -9h-41q-16 0 -22.5 10t-4.5 22z" />
<glyph unicode="&#xe4;" horiz-adv-x="1165" d="M77 297q-7 88 7 178q4 31 10 57.5t15 57.5q23 88 61.5 177t101 159.5t151.5 114.5t212 44q135 0 202.5 -47t102.5 -114l21 96q10 45 53 45h35q20 0 30.5 -12.5t5.5 -32.5l-206 -975q-10 -45 -54 -45h-34q-20 0 -30.5 12.5t-6.5 32.5l20 96q-33 -35 -65.5 -64.5t-73.5 -51 t-92 -33.5t-119 -12q-119 0 -192.5 44t-110.5 114.5t-44 158.5zM200 332.5q1 -68.5 22.5 -120.5t69.5 -83t132 -31q88 0 158.5 33t123 85t86.5 116t50 127q8 31 18 80t17 79q12 61 7 124t-32 112t-79 81t-138 32q-84 0 -148.5 -32t-113.5 -84t-83 -119.5t-54 -141.5 q-10 -31 -15.5 -57.5t-9.5 -57.5q-12 -74 -11 -142.5zM460 1329l19 78q4 20 18.5 33.5t34.5 13.5h78q20 0 31.5 -13.5t7.5 -33.5l-19 -78q-10 -45 -55 -45h-78q-43 0 -37 45zM774 1329l18 78q4 20 18.5 33.5t35.5 13.5h77q20 0 31.5 -13.5t7.5 -33.5l-18 -78 q-10 -45 -55 -45h-78q-43 0 -37 45z" />
<glyph unicode="&#xe5;" horiz-adv-x="1165" d="M77 297q-7 88 7 178q4 31 10 57.5t15 57.5q23 88 61.5 177t101 159.5t151.5 114.5t212 44q135 0 202.5 -47t102.5 -114l21 96q10 45 53 45h35q20 0 30.5 -12.5t5.5 -32.5l-206 -975q-10 -45 -54 -45h-34q-20 0 -30.5 12.5t-6.5 32.5l20 96q-33 -35 -65.5 -64.5t-73.5 -51 t-92 -33.5t-119 -12q-119 0 -192.5 44t-110.5 114.5t-44 158.5zM200 332.5q1 -68.5 22.5 -120.5t69.5 -83t132 -31q88 0 158.5 33t123 85t86.5 116t50 127q8 31 18 80t17 79q12 61 7 124t-32 112t-79 81t-138 32q-84 0 -148.5 -32t-113.5 -84t-83 -119.5t-54 -141.5 q-10 -31 -15.5 -57.5t-9.5 -57.5q-12 -74 -11 -142.5zM557 1362q16 68 69.5 111t121.5 43t110 -43t27 -111q-16 -70 -69.5 -112t-120.5 -42q-35 0 -62.5 11.5t-47 32t-28 49t-0.5 61.5zM660 1362q-6 -27 5 -44.5t36 -17.5q31 0 53.5 17.5t28.5 44.5t-4.5 44t-38.5 17 q-31 0 -52.5 -17t-27.5 -44z" />
<glyph unicode="&#xe6;" horiz-adv-x="1804" d="M18 285q29 139 147 225t335 117l329 47l15 59q23 111 -24.5 172.5t-192.5 61.5q-115 0 -187.5 -44t-107.5 -96q-16 -23 -27.5 -33t-30.5 -10h-34q-18 0 -29.5 13.5t-5.5 31.5q10 29 38.5 72t80 84t126.5 70.5t177 29.5q156 0 236.5 -52t101.5 -128l-2 -2q72 86 172 134 t223 48q207 0 294 -140t38 -388l-7 -31q-4 -20 -20 -32.5t-37 -12.5h-708q-14 -76 -12.5 -145.5t26 -121.5t77 -84t138.5 -32q80 0 135 16.5t92 38t57.5 44t32.5 34.5q23 27 34 32t34 5h33q18 0 29.5 -11t4.5 -30q-8 -29 -40.5 -71.5t-89 -81.5t-137.5 -66.5t-185 -27.5 q-139 0 -227.5 63t-122.5 174q-84 -121 -191.5 -179t-261.5 -58q-82 0 -147.5 23.5t-110.5 64.5t-63.5 96t-4.5 121zM145 295q-10 -51 1.5 -88t40 -61.5t69.5 -37t88 -12.5q70 0 140.5 23.5t131 71t106.5 120t66 168.5l15 70l-303 -39q-156 -20 -246 -75.5t-109 -139.5z M942 596h631q18 78 17 145.5t-25.5 117.5t-75.5 79t-131 29q-78 0 -145.5 -29t-123 -80t-93.5 -118.5t-54 -143.5z" />
<glyph unicode="&#xe7;" horiz-adv-x="1095" d="M82 451q6 31 16.5 82t18.5 81q53 221 188 346t352 125q113 0 187 -31.5t115.5 -80.5t56 -108.5t8.5 -114.5q-4 -45 -43 -45h-39q-23 0 -33 9t-8 34q4 117 -61.5 168t-182.5 51q-70 0 -135 -20.5t-119.5 -64.5t-96 -113t-66.5 -165q-8 -31 -16.5 -71.5t-14.5 -71.5 q-35 -193 31.5 -278t205.5 -85q109 0 204 46t155 163q14 27 23.5 35t31.5 8h37q18 0 27.5 -12t3.5 -33q-16 -55 -53 -112.5t-95.5 -104.5t-141.5 -77.5t-189 -30.5l-70 -97q14 8 36.5 11.5t45.5 3.5q31 0 55.5 -13.5t40.5 -37t22.5 -55.5t-1.5 -68q-16 -74 -66.5 -124.5 t-140.5 -50.5q-43 0 -81 12.5t-61.5 29t-32 34t8.5 29.5l33 27q12 10 21 6t21.5 -13.5t33 -19.5t57.5 -10q35 0 65.5 21.5t38.5 60.5q8 37 -14.5 57t-57.5 20q-25 0 -44 -6t-33.5 -10t-26.5 -4t-20 12l-25 35q-8 12 2 28.5t20 32.5l64 99q-152 31 -222.5 150.5t-35.5 310.5z " />
<glyph unicode="&#xe8;" horiz-adv-x="1114" d="M78 451q4 31 15.5 81.5t19.5 81.5q27 104 78 191.5t121.5 149t156.5 96t182 34.5q221 0 311.5 -141t41.5 -387l-7 -31q-4 -20 -20 -32.5t-37 -12.5h-729q-14 -76 -12 -145.5t26.5 -121.5t76.5 -84t138 -32q80 0 137.5 16.5t95.5 38t60.5 44l34.5 34.5q23 27 34 32t34 5 h32q18 0 29.5 -11t5.5 -30q-8 -29 -38.5 -71.5t-88 -81.5t-140.5 -66.5t-196 -27.5q-92 0 -166.5 34.5t-123 96t-69 148.5t-3.5 192zM236 596h651q18 78 14 145.5t-32.5 117.5t-83 79t-134.5 29q-78 0 -145.5 -29t-122.5 -80t-93 -118.5t-54 -143.5zM453 1460q14 25 38 25 h89q31 0 43 -8.5t24 -28.5l103 -166q12 -20 2.5 -41.5t-35.5 -21.5h-21q-20 0 -32.5 3t-26.5 17l-178 176q-20 20 -6 45z" />
<glyph unicode="&#xe9;" horiz-adv-x="1114" d="M78 451q4 31 15.5 81.5t19.5 81.5q27 104 78 191.5t121.5 149t156.5 96t182 34.5q221 0 311.5 -141t41.5 -387l-7 -31q-4 -20 -20 -32.5t-37 -12.5h-729q-14 -76 -12 -145.5t26.5 -121.5t76.5 -84t138 -32q80 0 137.5 16.5t95.5 38t60.5 44l34.5 34.5q23 27 34 32t34 5 h32q18 0 29.5 -11t5.5 -30q-8 -29 -38.5 -71.5t-88 -81.5t-140.5 -66.5t-196 -27.5q-92 0 -166.5 34.5t-123 96t-69 148.5t-3.5 192zM236 596h651q18 78 14 145.5t-32.5 117.5t-83 79t-134.5 29q-78 0 -145.5 -29t-122.5 -80t-93 -118.5t-54 -143.5zM621.5 1237 q-5.5 18 17.5 41l178 170q23 20 38 28.5t46 8.5h84q29 0 32 -24.5t-18 -39.5l-262 -182q-20 -14 -33.5 -17t-33.5 -3h-23q-20 0 -25.5 18z" />
<glyph unicode="&#xea;" horiz-adv-x="1114" d="M78 451q4 31 15.5 81.5t19.5 81.5q27 104 78 191.5t121.5 149t156.5 96t182 34.5q221 0 311.5 -141t41.5 -387l-7 -31q-4 -20 -20 -32.5t-37 -12.5h-729q-14 -76 -12 -145.5t26.5 -121.5t76.5 -84t138 -32q80 0 137.5 16.5t95.5 38t60.5 44l34.5 34.5q23 27 34 32t34 5 h32q18 0 29.5 -11t5.5 -30q-8 -29 -38.5 -71.5t-88 -81.5t-140.5 -66.5t-196 -27.5q-92 0 -166.5 34.5t-123 96t-69 148.5t-3.5 192zM236 596h651q18 78 14 145.5t-32.5 117.5t-83 79t-134.5 29q-78 0 -145.5 -29t-122.5 -80t-93 -118.5t-54 -143.5zM392.5 1236 q-3.5 17 19.5 34l229 186q27 23 41.5 26t30.5 3h20q16 0 29.5 -3t30.5 -26l149 -184q16 -23 6 -38t-28 -15h-41q-20 0 -35 14l-133 123l-186 -123q-10 -6 -18.5 -10t-20.5 -4h-70q-20 0 -23.5 17z" />
<glyph unicode="&#xeb;" horiz-adv-x="1114" d="M78 451q4 31 15.5 81.5t19.5 81.5q27 104 78 191.5t121.5 149t156.5 96t182 34.5q221 0 311.5 -141t41.5 -387l-7 -31q-4 -20 -20 -32.5t-37 -12.5h-729q-14 -76 -12 -145.5t26.5 -121.5t76.5 -84t138 -32q80 0 137.5 16.5t95.5 38t60.5 44l34.5 34.5q23 27 34 32t34 5 h32q18 0 29.5 -11t5.5 -30q-8 -29 -38.5 -71.5t-88 -81.5t-140.5 -66.5t-196 -27.5q-92 0 -166.5 34.5t-123 96t-69 148.5t-3.5 192zM236 596h651q18 78 14 145.5t-32.5 117.5t-83 79t-134.5 29q-78 0 -145.5 -29t-122.5 -80t-93 -118.5t-54 -143.5zM471 1329l19 78 q4 20 18.5 33.5t34.5 13.5h78q20 0 31.5 -13.5t7.5 -33.5l-19 -78q-10 -45 -55 -45h-78q-43 0 -37 45zM785 1329l18 78q4 20 18.5 33.5t35.5 13.5h77q20 0 31.5 -13.5t7.5 -33.5l-18 -78q-10 -45 -55 -45h-78q-43 0 -37 45z" />
<glyph unicode="&#xec;" horiz-adv-x="458" d="M47 45l207 975q10 45 55 45h35q45 0 35 -45l-207 -975q-10 -45 -53 -45h-35q-20 0 -30.5 12.5t-6.5 32.5zM131 1460q14 25 38 25h89q31 0 43 -8.5t24 -28.5l103 -166q12 -20 2.5 -41.5t-35.5 -21.5h-21q-20 0 -32.5 3t-26.5 17l-178 176q-20 20 -6 45z" />
<glyph unicode="&#xed;" horiz-adv-x="458" d="M47 45l207 975q10 45 55 45h35q45 0 35 -45l-207 -975q-10 -45 -53 -45h-35q-20 0 -30.5 12.5t-6.5 32.5zM298.5 1237q-5.5 18 17.5 41l178 170q23 20 38 28.5t46 8.5h84q29 0 32 -24.5t-18 -39.5l-262 -182q-20 -14 -33.5 -17t-33.5 -3h-23q-20 0 -25.5 18z" />
<glyph unicode="&#xee;" horiz-adv-x="458" d="M47 45l207 975q10 45 55 45h35q45 0 35 -45l-207 -975q-10 -45 -53 -45h-35q-20 0 -30.5 12.5t-6.5 32.5zM72.5 1236q-3.5 17 19.5 34l229 186q27 23 41.5 26t30.5 3h20q16 0 29.5 -3t30.5 -26l149 -184q16 -23 6 -38t-28 -15h-41q-20 0 -35 14l-133 123l-186 -123 q-10 -6 -18.5 -10t-20.5 -4h-70q-20 0 -23.5 17z" />
<glyph unicode="&#xef;" horiz-adv-x="458" d="M47 45l207 975q10 45 55 45h35q45 0 35 -45l-207 -975q-10 -45 -53 -45h-35q-20 0 -30.5 12.5t-6.5 32.5zM141 1329l19 78q4 20 18.5 33.5t34.5 13.5h78q20 0 31.5 -13.5t7.5 -33.5l-19 -78q-10 -45 -55 -45h-78q-43 0 -37 45zM455 1329l18 78q4 20 18.5 33.5t35.5 13.5 h77q20 0 31.5 -13.5t7.5 -33.5l-18 -78q-10 -45 -55 -45h-78q-43 0 -37 45z" />
<glyph unicode="&#xf0;" horiz-adv-x="1132" d="M68.5 277.5q-11.5 91.5 13.5 195.5q20 104 66.5 194.5t114 156t157.5 102.5t201 37q82 0 151.5 -20.5t114.5 -59.5q-8 72 -27.5 131t-50.5 112l-223 -77q-16 -6 -38 -1t-16 33l11 49q4 23 16 32t41 20l135 47q-25 29 -53.5 58.5t-56.5 60.5q-16 16 -19.5 31.5t1.5 27.5 t16.5 19.5t25.5 7.5h41q25 0 40 -7.5t30 -19.5q29 -33 57.5 -64.5t52.5 -64.5l213 76q20 8 40 2t14 -35l-11 -49q-4 -23 -16 -32t-39 -19l-133 -47q31 -57 51.5 -125t26.5 -153t-2 -188.5t-35 -234.5q-23 -104 -66 -195.5t-110.5 -157t-158.5 -103t-210 -37.5 q-111 0 -188.5 37.5t-121.5 103t-55.5 157zM194 326.5q3 -68.5 29.5 -118.5t78.5 -80t132 -30t149.5 30t124 80t92.5 118.5t54 146.5t12 145.5t-31.5 117.5t-81 79t-132.5 29q-80 0 -149 -29t-123 -79t-90 -117.5t-52 -145.5t-13 -146.5z" />
<glyph unicode="&#xf1;" horiz-adv-x="1208" d="M47 45l207 975q10 45 55 45h35q45 0 35 -45l-21 -96q63 72 153.5 116.5t207.5 44.5t191.5 -34.5t114.5 -96t46 -145.5t-14 -182l-125 -582q-10 -45 -53 -45h-35q-20 0 -30.5 12.5t-6.5 32.5l121 571q18 86 19 152t-21.5 110t-72.5 66.5t-134 22.5q-162 0 -276.5 -92.5 t-149.5 -258.5l-121 -571q-10 -45 -53 -45h-35q-20 0 -30.5 12.5t-6.5 32.5zM483 1251q8 59 58.5 104.5t114.5 45.5q37 0 59 -11.5t39.5 -23.5t34 -23.5t39.5 -11.5q18 0 30.5 9.5t22.5 21.5t21.5 21.5t27.5 9.5h41q16 0 22.5 -10.5t4.5 -22.5q-4 -29 -19.5 -56.5t-39 -49 t-52.5 -34t-59 -12.5q-35 0 -58.5 11.5t-42 23.5t-35 23.5t-36.5 11.5q-18 0 -30.5 -9t-24 -20.5t-23 -20.5t-27.5 -9h-41q-16 0 -22.5 10t-4.5 22z" />
<glyph unicode="&#xf2;" horiz-adv-x="1138" d="M76.5 262q-15.5 86 3.5 184q2 14 6 38t9 48.5t11.5 47t10.5 38.5q25 98 69.5 184.5t112.5 149t157.5 98t200.5 35.5t189 -35.5t124 -98t60 -148.5t-4 -185q-4 -16 -8 -38.5t-9 -47t-10.5 -48t-9.5 -38.5q-25 -98 -71 -184t-113.5 -148.5t-157.5 -98t-201 -35.5 q-106 0 -184 35.5t-124 98t-61.5 148.5zM207 457q-31 -176 30.5 -267.5t208.5 -91.5q72 0 138.5 23.5t122 69t96.5 112t63 154.5q8 31 17.5 75.5t15.5 75.5q31 176 -31.5 267.5t-210.5 91.5q-72 0 -138 -23.5t-121.5 -69t-96.5 -112t-61 -154.5q-10 -31 -19.5 -76t-13.5 -75 zM469 1460q14 25 38 25h89q31 0 43 -8.5t24 -28.5l103 -166q12 -20 2.5 -41.5t-35.5 -21.5h-21q-20 0 -32.5 3t-26.5 17l-178 176q-20 20 -6 45z" />
<glyph unicode="&#xf3;" horiz-adv-x="1138" d="M76.5 262q-15.5 86 3.5 184q2 14 6 38t9 48.5t11.5 47t10.5 38.5q25 98 69.5 184.5t112.5 149t157.5 98t200.5 35.5t189 -35.5t124 -98t60 -148.5t-4 -185q-4 -16 -8 -38.5t-9 -47t-10.5 -48t-9.5 -38.5q-25 -98 -71 -184t-113.5 -148.5t-157.5 -98t-201 -35.5 q-106 0 -184 35.5t-124 98t-61.5 148.5zM207 457q-31 -176 30.5 -267.5t208.5 -91.5q72 0 138.5 23.5t122 69t96.5 112t63 154.5q8 31 17.5 75.5t15.5 75.5q31 176 -31.5 267.5t-210.5 91.5q-72 0 -138 -23.5t-121.5 -69t-96.5 -112t-61 -154.5q-10 -31 -19.5 -76t-13.5 -75 zM635.5 1237q-5.5 18 17.5 41l178 170q23 20 38 28.5t46 8.5h84q29 0 32 -24.5t-18 -39.5l-262 -182q-20 -14 -33.5 -17t-33.5 -3h-23q-20 0 -25.5 18z" />
<glyph unicode="&#xf4;" horiz-adv-x="1138" d="M76.5 262q-15.5 86 3.5 184q2 14 6 38t9 48.5t11.5 47t10.5 38.5q25 98 69.5 184.5t112.5 149t157.5 98t200.5 35.5t189 -35.5t124 -98t60 -148.5t-4 -185q-4 -16 -8 -38.5t-9 -47t-10.5 -48t-9.5 -38.5q-25 -98 -71 -184t-113.5 -148.5t-157.5 -98t-201 -35.5 q-106 0 -184 35.5t-124 98t-61.5 148.5zM207 457q-31 -176 30.5 -267.5t208.5 -91.5q72 0 138.5 23.5t122 69t96.5 112t63 154.5q8 31 17.5 75.5t15.5 75.5q31 176 -31.5 267.5t-210.5 91.5q-72 0 -138 -23.5t-121.5 -69t-96.5 -112t-61 -154.5q-10 -31 -19.5 -76t-13.5 -75 zM410.5 1236q-3.5 17 19.5 34l229 186q27 23 41.5 26t30.5 3h20q16 0 29.5 -3t30.5 -26l149 -184q16 -23 6 -38t-28 -15h-41q-20 0 -35 14l-133 123l-186 -123q-10 -6 -18.5 -10t-20.5 -4h-70q-20 0 -23.5 17z" />
<glyph unicode="&#xf5;" horiz-adv-x="1138" d="M76.5 262q-15.5 86 3.5 184q2 14 6 38t9 48.5t11.5 47t10.5 38.5q25 98 69.5 184.5t112.5 149t157.5 98t200.5 35.5t189 -35.5t124 -98t60 -148.5t-4 -185q-4 -16 -8 -38.5t-9 -47t-10.5 -48t-9.5 -38.5q-25 -98 -71 -184t-113.5 -148.5t-157.5 -98t-201 -35.5 q-106 0 -184 35.5t-124 98t-61.5 148.5zM207 457q-31 -176 30.5 -267.5t208.5 -91.5q72 0 138.5 23.5t122 69t96.5 112t63 154.5q8 31 17.5 75.5t15.5 75.5q31 176 -31.5 267.5t-210.5 91.5q-72 0 -138 -23.5t-121.5 -69t-96.5 -112t-61 -154.5q-10 -31 -19.5 -76t-13.5 -75 zM458 1251q8 59 58.5 104.5t114.5 45.5q37 0 59 -11.5t39.5 -23.5t34 -23.5t39.5 -11.5q18 0 30.5 9.5t22.5 21.5t21.5 21.5t27.5 9.5h41q16 0 22.5 -10.5t4.5 -22.5q-4 -29 -19.5 -56.5t-39 -49t-52.5 -34t-59 -12.5q-35 0 -58.5 11.5t-42 23.5t-35 23.5t-36.5 11.5 q-18 0 -30.5 -9t-24 -20.5t-23 -20.5t-27.5 -9h-41q-16 0 -22.5 10t-4.5 22z" />
<glyph unicode="&#xf6;" horiz-adv-x="1138" d="M76.5 262q-15.5 86 3.5 184q2 14 6 38t9 48.5t11.5 47t10.5 38.5q25 98 69.5 184.5t112.5 149t157.5 98t200.5 35.5t189 -35.5t124 -98t60 -148.5t-4 -185q-4 -16 -8 -38.5t-9 -47t-10.5 -48t-9.5 -38.5q-25 -98 -71 -184t-113.5 -148.5t-157.5 -98t-201 -35.5 q-106 0 -184 35.5t-124 98t-61.5 148.5zM207 457q-31 -176 30.5 -267.5t208.5 -91.5q72 0 138.5 23.5t122 69t96.5 112t63 154.5q8 31 17.5 75.5t15.5 75.5q31 176 -31.5 267.5t-210.5 91.5q-72 0 -138 -23.5t-121.5 -69t-96.5 -112t-61 -154.5q-10 -31 -19.5 -76t-13.5 -75 zM479 1329l19 78q4 20 18.5 33.5t34.5 13.5h78q20 0 31.5 -13.5t7.5 -33.5l-19 -78q-10 -45 -55 -45h-78q-43 0 -37 45zM793 1329l18 78q4 20 18.5 33.5t35.5 13.5h77q20 0 31.5 -13.5t7.5 -33.5l-18 -78q-10 -45 -55 -45h-78q-43 0 -37 45z" />
<glyph unicode="&#xf7;" horiz-adv-x="1148" d="M143 602l7 29q10 45 55 45h768q45 0 35 -45l-7 -29q-10 -45 -55 -45h-768q-45 0 -35 45zM393 209l21 98q4 20 19.5 33.5t35.5 13.5h98q20 0 30.5 -13t6.5 -34l-20 -98q-10 -45 -56 -45h-98q-20 0 -30.5 12t-6.5 33zM547 926l20 98q4 20 19.5 33.5t36.5 13.5h98 q20 0 30.5 -13.5t6.5 -33.5l-21 -98q-4 -20 -20.5 -32.5t-36.5 -12.5h-98q-45 0 -35 45z" />
<glyph unicode="&#xf8;" horiz-adv-x="1212" d="M-37 295l8 39q4 23 16.5 32t39.5 19l86 31l6 30q2 14 6 38t9 48.5t11.5 47t10.5 38.5q25 98 69.5 184.5t112.5 149t157.5 98t200.5 35.5q178 0 272.5 -91t104.5 -234l86 31q20 8 42 5t16 -36l-9 -39q-4 -23 -16 -32t-39 -19l-84 -31q-6 -39 -18.5 -97.5t-22.5 -95.5 q-25 -98 -71 -184t-113.5 -148.5t-157.5 -98t-201 -35.5q-172 0 -267 87t-107 228l-88 -31q-23 -8 -44.5 -4t-15.5 35zM236 340q4 -242 249 -242q145 0 262 91.5t158 267.5q10 43 18.5 84t10.5 51zM246 463l702 252q-2 123 -65.5 187.5t-186.5 64.5q-72 0 -138 -23.5 t-121.5 -69t-96.5 -112t-61 -154.5q-10 -29 -18.5 -70.5t-14.5 -74.5z" />
<glyph unicode="&#xf9;" horiz-adv-x="1200" d="M105.5 256q-5.5 84 15.5 182l123 582q10 45 55 45h35q45 0 35 -45l-121 -571q-18 -86 -20.5 -152t20 -110t73 -66.5t134.5 -22.5q76 0 144.5 23.5t123.5 69t94 111t57 147.5l121 571q10 45 56 45h34q45 0 35 -45l-207 -975q-10 -45 -53 -45h-35q-20 0 -30.5 12.5 t-6.5 32.5l21 96q-35 -37 -68.5 -66.5t-73.5 -51t-91.5 -32.5t-120.5 -11q-117 0 -192 34.5t-113.5 96t-44 145.5zM488 1460q14 25 38 25h89q31 0 43 -8.5t24 -28.5l103 -166q12 -20 2.5 -41.5t-35.5 -21.5h-21q-20 0 -32.5 3t-26.5 17l-178 176q-20 20 -6 45z" />
<glyph unicode="&#xfa;" horiz-adv-x="1200" d="M105.5 256q-5.5 84 15.5 182l123 582q10 45 55 45h35q45 0 35 -45l-121 -571q-18 -86 -20.5 -152t20 -110t73 -66.5t134.5 -22.5q76 0 144.5 23.5t123.5 69t94 111t57 147.5l121 571q10 45 56 45h34q45 0 35 -45l-207 -975q-10 -45 -53 -45h-35q-20 0 -30.5 12.5 t-6.5 32.5l21 96q-35 -37 -68.5 -66.5t-73.5 -51t-91.5 -32.5t-120.5 -11q-117 0 -192 34.5t-113.5 96t-44 145.5zM637.5 1237q-5.5 18 17.5 41l178 170q23 20 38 28.5t46 8.5h84q29 0 32 -24.5t-18 -39.5l-262 -182q-20 -14 -33.5 -17t-33.5 -3h-23q-20 0 -25.5 18z" />
<glyph unicode="&#xfb;" horiz-adv-x="1200" d="M105.5 256q-5.5 84 15.5 182l123 582q10 45 55 45h35q45 0 35 -45l-121 -571q-18 -86 -20.5 -152t20 -110t73 -66.5t134.5 -22.5q76 0 144.5 23.5t123.5 69t94 111t57 147.5l121 571q10 45 56 45h34q45 0 35 -45l-207 -975q-10 -45 -53 -45h-35q-20 0 -30.5 12.5 t-6.5 32.5l21 96q-35 -37 -68.5 -66.5t-73.5 -51t-91.5 -32.5t-120.5 -11q-117 0 -192 34.5t-113.5 96t-44 145.5zM404.5 1236q-3.5 17 19.5 34l229 186q27 23 41.5 26t30.5 3h20q16 0 29.5 -3t30.5 -26l149 -184q16 -23 6 -38t-28 -15h-41q-20 0 -35 14l-133 123l-186 -123 q-10 -6 -18.5 -10t-20.5 -4h-70q-20 0 -23.5 17z" />
<glyph unicode="&#xfc;" horiz-adv-x="1200" d="M105.5 256q-5.5 84 15.5 182l123 582q10 45 55 45h35q45 0 35 -45l-121 -571q-18 -86 -20.5 -152t20 -110t73 -66.5t134.5 -22.5q76 0 144.5 23.5t123.5 69t94 111t57 147.5l121 571q10 45 56 45h34q45 0 35 -45l-207 -975q-10 -45 -53 -45h-35q-20 0 -30.5 12.5 t-6.5 32.5l21 96q-35 -37 -68.5 -66.5t-73.5 -51t-91.5 -32.5t-120.5 -11q-117 0 -192 34.5t-113.5 96t-44 145.5zM485 1329l19 78q4 20 18.5 33.5t34.5 13.5h78q20 0 31.5 -13.5t7.5 -33.5l-19 -78q-10 -45 -55 -45h-78q-43 0 -37 45zM799 1329l18 78q4 20 18.5 33.5 t35.5 13.5h77q20 0 31.5 -13.5t7.5 -33.5l-18 -78q-10 -45 -55 -45h-78q-43 0 -37 45z" />
<glyph unicode="&#xfd;" horiz-adv-x="1093" d="M98 -369.5q-8 19.5 11 47.5l251 394l-200 940q-4 20 5 36.5t38 16.5h37q37 0 43 -31l174 -813l526 813q8 12 20.5 21.5t32.5 9.5h49q16 0 30.5 -15.5t-3.5 -43.5l-883 -1364q-8 -12 -20 -21.5t-33 -9.5h-47q-23 0 -31 19.5zM592.5 1237q-5.5 18 17.5 41l178 170 q23 20 38 28.5t46 8.5h84q29 0 32 -24.5t-18 -39.5l-262 -182q-20 -14 -33.5 -17t-33.5 -3h-23q-20 0 -25.5 18z" />
<glyph unicode="&#xfe;" horiz-adv-x="1185" d="M-35 -344l375 1753q10 45 53 45h35q20 0 30.5 -11t6.5 -34l-105 -485q57 66 141.5 113.5t219.5 47.5q119 0 193.5 -44t114.5 -114.5t48 -158.5t-6 -178q-4 -31 -10 -57.5t-14 -57.5q-23 -90 -64 -178t-104.5 -158.5t-154.5 -114.5t-214 -44q-135 0 -208 47t-107 114 l-105 -485q-10 -45 -53 -45h-35q-20 0 -30.5 12t-6.5 33zM252 322.5q6 -62.5 34.5 -111.5t83 -81t140.5 -32q84 0 150.5 32t116.5 84t85 119.5t58 141.5q10 31 15 57.5t9 57.5q12 74 10 141.5t-26.5 119.5t-73.5 84t-133 32q-88 0 -160 -33t-126 -85t-91 -116t-51 -127 q-8 -31 -18.5 -80t-16.5 -80q-12 -61 -6 -123.5z" />
<glyph unicode="&#xff;" horiz-adv-x="1093" d="M98 -369.5q-8 19.5 11 47.5l251 394l-200 940q-4 20 5 36.5t38 16.5h37q37 0 43 -31l174 -813l526 813q8 12 20.5 21.5t32.5 9.5h49q16 0 30.5 -15.5t-3.5 -43.5l-883 -1364q-8 -12 -20 -21.5t-33 -9.5h-47q-23 0 -31 19.5zM430 1329l19 78q4 20 18.5 33.5t34.5 13.5h78 q20 0 31.5 -13.5t7.5 -33.5l-19 -78q-10 -45 -55 -45h-78q-43 0 -37 45zM744 1329l18 78q4 20 18.5 33.5t35.5 13.5h77q20 0 31.5 -13.5t7.5 -33.5l-18 -78q-10 -45 -55 -45h-78q-43 0 -37 45z" />
<glyph unicode="&#x152;" horiz-adv-x="1837" d="M129 553q8 45 16.5 85t16.5 78t17 76.5t20 86.5q33 141 82 245.5t125.5 173t185 102.5t262.5 34h987q47 0 37 -48l-6 -30q-10 -45 -55 -45h-633l-113 -523h588q47 0 37 -47l-6 -30q-10 -45 -56 -45h-587l-117 -543h649q47 0 37 -47l-6 -31q-10 -45 -56 -45h-952 q-281 0 -403.5 142.5t-69.5 410.5zM244.5 367.5q7.5 -82.5 49.5 -137t121 -81t201 -26.5h185l254 1188h-195q-123 0 -211 -24.5t-150.5 -77t-104.5 -137.5t-68 -204q-10 -47 -18.5 -82.5t-15.5 -69.5t-15.5 -71t-16.5 -82q-23 -113 -15.5 -195.5z" />
<glyph unicode="&#x153;" horiz-adv-x="1904" d="M76.5 262q-15.5 86 3.5 184q2 14 6 38t9 48.5t11.5 47t10.5 38.5q25 98 69.5 184.5t112.5 149t157.5 98t200.5 35.5q145 0 233.5 -60t123.5 -163q74 104 181.5 163.5t246.5 59.5q102 0 180 -36.5t124 -104t59.5 -166t-11.5 -221.5l-6 -31q-4 -20 -20.5 -32.5t-36.5 -12.5 h-730q-14 -76 -12 -145.5t26.5 -121.5t77 -84t138.5 -32q80 0 137 16.5t95 38t60.5 44t35.5 34.5q23 27 34 32t33 5h33q18 0 29.5 -11t5.5 -30q-8 -29 -42 -71.5t-92.5 -81.5t-141.5 -66.5t-187 -27.5q-135 0 -224 60t-124 165q-72 -104 -180.5 -164.5t-256.5 -60.5 q-106 0 -184 35.5t-124 98t-61.5 148.5zM207 457q-31 -176 30.5 -267.5t208.5 -91.5q145 0 260 91.5t160 267.5q14 53 21.5 93t11.5 58q31 176 -31.5 267.5t-210.5 91.5q-72 0 -138 -23.5t-121.5 -69t-96.5 -112t-61 -154.5q-10 -31 -19.5 -76t-13.5 -75zM1026 596h651 q18 78 12 145.5t-34.5 117.5t-82.5 79t-130 29q-80 0 -149.5 -29t-123 -80t-90.5 -118.5t-53 -143.5z" />
<glyph unicode="&#x178;" horiz-adv-x="1288" d="M238 1366q-10 23 4 45.5t43 22.5h34q29 0 41 -31l285 -717l588 717q25 31 53 31h64q35 0 35.5 -22.5t-17.5 -45.5l-674 -819l-108 -502q-10 -45 -56 -45h-34q-20 0 -30.5 12.5t-6.5 32.5l104 502zM540 1581l17 78q4 20 19.5 33.5t35.5 13.5h78q20 0 30.5 -13.5t6.5 -33.5 l-17 -78q-4 -20 -20 -32.5t-37 -12.5h-78q-45 0 -35 45zM915 1581l17 78q4 20 19 33.5t36 13.5h78q20 0 30.5 -13.5t6.5 -33.5l-17 -78q-4 -20 -20.5 -32.5t-36.5 -12.5h-78q-45 0 -35 45z" />
<glyph unicode="&#x2c6;" horiz-adv-x="622" d="M62.5 1236q-3.5 17 19.5 34l229 186q27 23 41.5 26t30.5 3h20q16 0 29.5 -3t30.5 -26l149 -184q16 -23 6 -38t-28 -15h-41q-20 0 -35 14l-133 123l-186 -123q-10 -6 -18.5 -10t-20.5 -4h-70q-20 0 -23.5 17z" />
<glyph unicode="&#x2dc;" horiz-adv-x="579" d="M63 1251q8 59 58.5 104.5t114.5 45.5q37 0 59 -11.5t39.5 -23.5t34 -23.5t39.5 -11.5q18 0 30.5 9.5t22.5 21.5t21.5 21.5t27.5 9.5h41q16 0 22.5 -10.5t4.5 -22.5q-4 -29 -19.5 -56.5t-39 -49t-52.5 -34t-59 -12.5q-35 0 -58.5 11.5t-42 23.5t-35 23.5t-36.5 11.5 q-18 0 -30.5 -9t-24 -20.5t-23 -20.5t-27.5 -9h-41q-16 0 -22.5 10t-4.5 22z" />
<glyph unicode="&#x2000;" horiz-adv-x="917" />
<glyph unicode="&#x2001;" horiz-adv-x="1835" />
<glyph unicode="&#x2002;" horiz-adv-x="917" />
<glyph unicode="&#x2003;" horiz-adv-x="1835" />
<glyph unicode="&#x2004;" horiz-adv-x="611" />
<glyph unicode="&#x2005;" horiz-adv-x="458" />
<glyph unicode="&#x2006;" horiz-adv-x="305" />
<glyph unicode="&#x2007;" horiz-adv-x="305" />
<glyph unicode="&#x2008;" horiz-adv-x="229" />
<glyph unicode="&#x2009;" horiz-adv-x="367" />
<glyph unicode="&#x200a;" horiz-adv-x="101" />
<glyph unicode="&#x2010;" horiz-adv-x="999" d="M150 600l6 29q10 45 53 45h604q20 0 30.5 -12.5t6.5 -32.5l-6 -29q-10 -45 -56 -45h-604q-45 0 -34 45z" />
<glyph unicode="&#x2011;" horiz-adv-x="999" d="M150 600l6 29q10 45 53 45h604q20 0 30.5 -12.5t6.5 -32.5l-6 -29q-10 -45 -56 -45h-604q-45 0 -34 45z" />
<glyph unicode="&#x2012;" horiz-adv-x="999" d="M150 600l6 29q10 45 53 45h604q20 0 30.5 -12.5t6.5 -32.5l-6 -29q-10 -45 -56 -45h-604q-45 0 -34 45z" />
<glyph unicode="&#x2013;" horiz-adv-x="1183" d="M150 600l6 29q10 45 53 45h788q20 0 30.5 -12.5t6.5 -32.5l-6 -29q-10 -45 -55 -45h-789q-45 0 -34 45z" />
<glyph unicode="&#x2014;" horiz-adv-x="1572" d="M150 600l6 29q10 45 53 45h1177q20 0 30.5 -12.5t6.5 -32.5l-6 -29q-10 -45 -55 -45h-1178q-45 0 -34 45z" />
<glyph unicode="&#x2018;" horiz-adv-x="456" d="M227 1127.5q0 17.5 11 33.5l147 250q12 23 25.5 33t35.5 10h35q16 0 22.5 -12t-1.5 -31l-92 -246q-10 -25 -23.5 -40t-38.5 -15h-92q-29 0 -29 17.5z" />
<glyph unicode="&#x2019;" horiz-adv-x="442" d="M239.5 1122.5q-6.5 12.5 2.5 30.5l92 246q10 25 23.5 40t37.5 15h92q29 0 29 -17.5t-10 -33.5l-148 -250q-12 -23 -25.5 -33t-35.5 -10h-35q-16 0 -22.5 12.5z" />
<glyph unicode="&#x201a;" horiz-adv-x="487" d="M-24.5 -141.5q-6.5 12.5 1.5 30.5l93 246q10 25 23 40t38 15h92q29 0 29 -17t-10 -34l-148 -250q-12 -23 -25.5 -33t-35.5 -10h-35q-16 0 -22.5 12.5z" />
<glyph unicode="&#x201c;" horiz-adv-x="731" d="M227 1127.5q0 17.5 11 33.5l147 250q12 23 25.5 33t35.5 10h35q16 0 22.5 -12t-1.5 -31l-92 -246q-10 -25 -23.5 -40t-38.5 -15h-92q-29 0 -29 17.5zM501.5 1127.5q0.5 17.5 10.5 33.5l147 250q12 23 25.5 33t36.5 10h35q16 0 22 -12t-2 -31l-92 -246q-10 -25 -23.5 -40 t-37.5 -15h-93q-29 0 -28.5 17.5z" />
<glyph unicode="&#x201d;" horiz-adv-x="716" d="M239.5 1122.5q-6.5 12.5 2.5 30.5l92 246q10 25 23.5 40t37.5 15h92q29 0 29 -17.5t-10 -33.5l-148 -250q-12 -23 -25.5 -33t-35.5 -10h-35q-16 0 -22.5 12.5zM514.5 1122.5q-6.5 12.5 1.5 30.5l92 246q10 25 23.5 40t38.5 15h92q29 0 29 -17.5t-11 -33.5l-147 -250 q-12 -23 -25.5 -33t-36.5 -10h-34q-16 0 -22.5 12.5z" />
<glyph unicode="&#x201e;" horiz-adv-x="761" d="M-24.5 -141.5q-6.5 12.5 1.5 30.5l93 246q10 25 23 40t38 15h92q29 0 29 -17t-10 -34l-148 -250q-12 -23 -25.5 -33t-35.5 -10h-35q-16 0 -22.5 12.5zM250 -141.5q-6 12.5 2 30.5l92 246q10 25 23.5 40t38.5 15h92q29 0 28.5 -17t-10.5 -34l-147 -250q-12 -23 -25.5 -33 t-36.5 -10h-35q-16 0 -22 12.5z" />
<glyph unicode="&#x2022;" horiz-adv-x="770" d="M180 614q8 43 33 80t58.5 64.5t74.5 44t84 16.5q86 0 132 -59.5t28 -145.5q-8 -43 -33 -79.5t-58.5 -64.5t-73.5 -44t-83 -16q-86 0 -132 59t-30 145z" />
<glyph unicode="&#x2026;" horiz-adv-x="1146" d="M35 45l20 98q4 20 19.5 33.5t36.5 13.5h98q20 0 30.5 -13t6.5 -34l-21 -98q-10 -45 -55 -45h-98q-20 0 -30.5 12.5t-6.5 32.5zM369 45l20 98q4 20 19.5 33.5t36.5 13.5h98q20 0 30.5 -13t6.5 -34l-21 -98q-10 -45 -55 -45h-98q-20 0 -30.5 12.5t-6.5 32.5zM703 45l20 98 q4 20 19.5 33.5t36.5 13.5h98q20 0 30.5 -13t6.5 -34l-21 -98q-10 -45 -55 -45h-98q-20 0 -30.5 12.5t-6.5 32.5z" />
<glyph unicode="&#x202f;" horiz-adv-x="367" />
<glyph unicode="&#x2039;" horiz-adv-x="722" d="M103.5 623.5q-3.5 17.5 0.5 33.5l7 33q6 35 51 72l465 375q31 25 62.5 20.5t23.5 -39.5l-13 -55q-6 -25 -17 -39t-36 -35l-418 -334l277 -338q16 -20 22.5 -34.5t-2.5 -38.5l-12 -33q-8 -18 -34.5 -22.5t-49.5 24.5l-307 373q-16 20 -19.5 37.5z" />
<glyph unicode="&#x203a;" horiz-adv-x="720" d="M35 227l12 56q6 25 17.5 39t35.5 34l418 334l-276 338q-16 20 -22.5 34.5t1.5 39.5l12 33q8 18 35 22t49 -24l308 -373q16 -20 19 -37.5t-1 -34.5l-6 -33q-6 -35 -51 -71l-465 -375q-31 -25 -62.5 -20.5t-23.5 38.5z" />
<glyph unicode="&#x205f;" horiz-adv-x="458" />
<glyph unicode="&#x20ac;" horiz-adv-x="1480" d="M82 557l8 33q10 45 53 45h129l35 164h-129q-41 0 -35 45l7 33q10 45 55 45h133q31 115 84 213t131 168.5t183.5 110.5t242.5 40q145 0 239.5 -38t147.5 -97t72.5 -130t17.5 -136q0 -18 -12 -29.5t-31 -11.5h-49q-16 0 -25.5 9t-11.5 34q-8 154 -95 215t-253 61 q-182 0 -316.5 -98t-193.5 -311h457q41 0 35 -45l-7 -33q-4 -20 -19 -32.5t-36 -12.5h-461l-35 -164h461q20 0 30.5 -12.5t6.5 -32.5l-8 -33q-10 -45 -53 -45h-457q-33 -215 47 -312.5t262 -97.5q162 0 291 62.5t201 214.5q10 25 23.5 34t29.5 9h41q18 0 29.5 -11.5 t5.5 -29.5q-20 -66 -64.5 -136.5t-120 -130t-183 -97t-253.5 -37.5q-137 0 -229 39.5t-145.5 110.5t-69 169t3.5 213h-133q-20 0 -30.5 12.5t-6.5 32.5z" />
<glyph unicode="&#x2122;" horiz-adv-x="1271" d="M252 1364l6 25q4 20 18.5 32.5t34.5 12.5h332q43 0 37 -45l-6 -25q-10 -45 -56 -45h-106l-82 -385q-4 -20 -18.5 -32.5t-34.5 -12.5h-29q-43 0 -37 45l82 385h-106q-45 0 -35 45zM643 934l98 455q4 20 18.5 32.5t35.5 12.5h28q27 0 38 -16.5t18 -28.5l84 -203l170 203 q10 12 27.5 28.5t43.5 16.5h29q43 0 37 -45l-99 -455q-4 -20 -18 -32.5t-35 -12.5h-28q-43 0 -37 45l57 264l-113 -137l-28.5 -28.5t-34.5 -12.5h-16q-23 0 -30 12t-14 29l-55 137l-57 -264q-4 -20 -18.5 -32.5t-34.5 -12.5h-29q-43 0 -37 45z" />
<glyph unicode="&#x25fc;" horiz-adv-x="1064" d="M0 0v1065h1065v-1065h-1065z" />
</font>
</defs>
</svg>
